<?xml version="1.0" standalone="no"?>
<!DOCTYPE svg PUBLIC "-//W3C//DTD SVG 1.1//EN" "http://www.w3.org/Graphics/SVG/1.1/DTD/svg11.dtd" >
<svg xmlns="http://www.w3.org/2000/svg">
<metadata></metadata>
<defs>
<font id="abriltitlingnarroww01-itRg" horiz-adv-x="1091" >
<font-face units-per-em="2048" ascent="1638" descent="-410" />
<missing-glyph horiz-adv-x="385" />
<glyph horiz-adv-x="0" />
<glyph horiz-adv-x="0" />
<glyph unicode="&#xd;" horiz-adv-x="385" />
<glyph unicode=" "  horiz-adv-x="385" />
<glyph unicode="&#x09;" horiz-adv-x="385" />
<glyph unicode="&#xa0;" horiz-adv-x="385" />
<glyph unicode="!" horiz-adv-x="692" d="M88 80q0 72 44 112.5t101 40.5q47 0 77 -24.5t30 -73.5q0 -72 -45 -115t-105 -43q-59 0 -80.5 33t-21.5 70zM211 375l29 172q14 94 23 178t15.5 166t10.5 163t8 167q2 53 10 96t24.5 73.5t45.5 48t74 17.5q49 0 71.5 -26.5t22.5 -69.5q0 -61 -23.5 -136t-56.5 -171.5 t-69 -220t-62 -285.5l-27 -172h-96z" />
<glyph unicode="&#x22;" horiz-adv-x="696" d="M217 1092l27 434q35 27 63.5 38t50.5 11q29 0 44.5 -16.5t15.5 -38.5q0 -41 -25 -111l-106 -317h-70zM502 1092l26 434q35 27 64 38t51 11q29 0 44 -16.5t15 -38.5q0 -41 -24 -111l-107 -317h-69z" />
<glyph unicode="#" horiz-adv-x="1132" d="M0 285l33 86h225l119 362h-232l31 88h225l82 266h90l-84 -266h297l82 266h86l-84 -266h234l-29 -88h-229l-115 -362h230l-29 -86h-225l-91 -285h-88l90 285h-296l-95 -285h-88l92 285h-231zM348 371h297l115 362h-295z" />
<glyph unicode="$" horiz-adv-x="1026" d="M-12 -8l59 438h78q6 -109 44 -199t130 -131l137 518q-53 25 -102 53.5t-88 69.5t-62.5 99.5t-23.5 140.5q0 86 29.5 163t85 133t132 90t173.5 34q16 0 36.5 -2t30.5 -4l51 182l78 -12l-51 -193q39 -16 66.5 -32.5t48.5 -16.5q20 0 31.5 15.5t23.5 45.5h72l-56 -403h-82 q-10 123 -40.5 195.5t-90.5 105.5l-129 -485q61 -27 117.5 -56.5t99.5 -71.5t70 -98.5t27 -134.5q0 -102 -36 -187t-96.5 -145.5t-141.5 -93.5t-173 -33q-53 0 -88 9l-41 -150l-80 14l43 154q-57 23 -91 45.5t-60 22.5q-20 0 -32.5 -18.5t-29.5 -61.5h-69zM317 1063 q0 -92 51.5 -144.5t127.5 -89.5l127 476q-10 2 -23.5 3t-26.5 1q-45 0 -91 -13.5t-83 -43t-59.5 -77t-22.5 -112.5zM375 80q31 -6 71 -6q51 0 100.5 14t89.5 46t64.5 81t24.5 121q0 53 -17.5 91t-46 67.5t-68.5 51t-83 42.5z" />
<glyph unicode="%" horiz-adv-x="1380" d="M111 1034q0 82 23.5 159t68.5 135t111.5 93t150.5 35q49 0 92 -15.5t75 -48t51 -84t19 -122.5q0 -109 -32.5 -188.5t-83.5 -132t-113.5 -77t-122.5 -24.5q-123 0 -181 76.5t-58 193.5zM123 0l1003 1434h111l-1001 -1434h-113zM252 1038q0 -178 115 -178q90 0 141 95.5 t51 248.5q0 27 -5 54.5t-17.5 50t-34 37t-56.5 14.5q-55 0 -92 -30t-60.5 -77t-32.5 -104t-9 -111zM674 248q0 82 23.5 158.5t68.5 135t110.5 93.5t149.5 35q49 0 92 -15.5t76 -48.5t52.5 -84t19.5 -123q0 -109 -33 -188.5t-85 -131.5t-114.5 -77t-122.5 -25q-123 0 -180 77 t-57 194zM815 252q0 -178 113 -178q90 0 142 95t52 249q0 27 -5 54.5t-17.5 50t-34.5 36.5t-57 14q-55 0 -92 -29.5t-59.5 -76.5t-32 -104.5t-9.5 -110.5z" />
<glyph unicode="&#x26;" horiz-adv-x="1515" d="M74 346q0 84 28.5 150.5t78.5 119t118 93.5t145 75l2 9q-35 16 -71.5 38.5t-68.5 56.5t-52.5 81t-20.5 114q0 94 40 164t106.5 116t154 69.5t183.5 23.5q72 0 135 -17.5t110.5 -50t75 -80.5t27.5 -110q0 -72 -40 -114t-99 -42q-57 0 -82 30t-25 71q0 47 21 80h69 q10 20 11 45q0 41 -43 67.5t-134 26.5q-82 0 -139 -22.5t-93 -62.5t-52.5 -94.5t-16.5 -115.5q0 -51 9.5 -89t22.5 -67.5t30.5 -51t34.5 -40.5q66 27 110 27q29 0 54.5 -13.5t25.5 -48.5q0 -37 -32.5 -55t-63.5 -18q-37 0 -70 9t-57 25q-102 -61 -155.5 -155t-53.5 -230 q0 -137 77 -210.5t230 -73.5q117 0 203 46t147.5 123t99.5 175t56 203l-190 -33q-35 -6 -49.5 -25.5t-24.5 -72.5l-60 4q4 74 14.5 118.5t33 72.5t61.5 42t100 25q45 8 103.5 17t116 18.5t104.5 16.5t72 13q29 6 42 23.5t19 68.5l57 -4q-4 -123 -38.5 -176t-96.5 -63 l-164 -29q-10 -63 -28.5 -138t-50 -148.5t-81 -141.5t-120 -120t-163.5 -83t-216 -31q-106 0 -194.5 25t-151 73t-97 116.5t-34.5 154.5z" />
<glyph unicode="'" horiz-adv-x="411" d="M209 1092l27 434q35 27 63.5 38t50.5 11q29 0 44.5 -16.5t15.5 -38.5q0 -41 -25 -111l-106 -317h-70z" />
<glyph unicode="(" horiz-adv-x="585" d="M102 453q0 168 40 324.5t113 303t172 281.5t218 258l51 -41q-92 -133 -167.5 -265t-129 -276.5t-83 -307.5t-29.5 -355q0 -180 26.5 -327.5t67.5 -274.5l-64 -43q-35 49 -72.5 124.5t-69.5 171t-52.5 205t-20.5 222.5z" />
<glyph unicode=")" horiz-adv-x="577" d="M-117 -229q92 131 168 264t129 277.5t83 307t30 355.5q0 180 -26.5 327.5t-67.5 274.5l63 43q35 -49 73 -126t69.5 -172t52 -203.5t20.5 -221.5q0 -168 -41 -325.5t-112.5 -303t-171 -280.5t-218.5 -258z" />
<glyph unicode="*" horiz-adv-x="925" d="M190 1061q0 59 84 86l234 70l-275 86q0 18 4.5 41.5t14.5 45t26.5 36t40.5 14.5q27 0 43.5 -11.5t38.5 -33.5l127 -127v293q29 23 54.5 32t44.5 9q29 0 42 -13.5t13 -34.5q0 -20 -8 -41.5t-19 -48.5l-80 -198l154 125q27 23 52.5 36t54.5 13t39 -17.5t10 -44.5 q0 -37 -15 -73l-299 -88l189 -68q31 -10 53.5 -23.5t22.5 -42.5q0 -41 -35 -66.5t-72 -41.5l-172 188l-4 -276q-59 -41 -100 -41q-27 0 -40.5 16.5t-13.5 38.5q0 23 8.5 40t18.5 40l84 184l-246 -190q-23 10 -48.5 30.5t-25.5 55.5z" />
<glyph unicode="+" d="M100 565l19 119h366l68 401h127l-68 -401h381l-18 -119h-381l-72 -428h-127l72 428h-367z" />
<glyph unicode="," horiz-adv-x="491" d="M-47 -260q33 25 70.5 55.5t69.5 66.5t52.5 73.5t20.5 76.5t-29 45l-69 -63q-29 10 -52.5 42t-23.5 77q0 72 47 115.5t119 43.5q70 0 103.5 -50t33.5 -116q0 -70 -23.5 -128t-65.5 -109t-96.5 -97t-115.5 -89z" />
<glyph unicode="-" horiz-adv-x="624" d="M61 512l25 143h438l-24 -143h-439z" />
<glyph unicode="." horiz-adv-x="442" d="M-16 98q0 82 51 129t119 47q53 0 86.5 -28.5t33.5 -85.5q0 -82 -51 -131t-121 -49q-68 0 -93 37.5t-25 80.5z" />
<glyph unicode="/" horiz-adv-x="727" d="M-133 -199l870 1827h121l-866 -1827h-125z" />
<glyph unicode="0" horiz-adv-x="1062" d="M35 504q0 94 14 200.5t44 213t78 204t114.5 172t154.5 118.5t199 44q80 0 146.5 -27.5t115.5 -87t77 -157t28 -234.5q0 -98 -13.5 -208.5t-42 -219t-76 -207t-114 -173t-154.5 -120t-200 -45.5q-96 0 -166 40t-115 111t-67.5 167t-22.5 209zM233 426q0 -193 48.5 -274.5 t146.5 -81.5q94 0 166 80.5t120 213t72.5 300t24.5 342.5q0 186 -46 273t-140 87q-92 0 -164 -82t-123 -214t-78 -301t-27 -343z" />
<glyph unicode="1" horiz-adv-x="792" d="M6 0l12 78l215 22l170 1090q-25 -8 -64.5 -8t-80.5 3t-77 8t-54 11l16 72q145 -12 236.5 31t157.5 127h98l-209 -1336l184 -16l-14 -82h-590z" />
<glyph unicode="2" horiz-adv-x="940" d="M-66 0l17 100l248 267q143 154 233 267.5t142.5 202.5t72 160.5t19.5 141.5q0 225 -181 225q-86 0 -143 -41t-57 -117v-13t4 -13h59q6 -23 6 -50q0 -76 -34.5 -111.5t-96.5 -35.5q-53 0 -82.5 35t-29.5 88q0 88 38.5 153.5t102 109.5t142.5 65.5t157 21.5 q92 0 156.5 -25.5t104.5 -68.5t58.5 -97.5t18.5 -111.5q0 -104 -40 -193.5t-108.5 -173.5t-160 -170t-191.5 -184q-55 -55 -119.5 -116.5t-148.5 -145.5h319q68 0 112 11.5t74.5 36t52 65.5t40.5 100h69l-73 -383h-781z" />
<glyph unicode="3" horiz-adv-x="976" d="M-27 205q0 86 42 129t110 43q59 0 85 -31t26 -72q0 -43 -21 -90h-74q-14 -23 -14 -43q0 -29 31.5 -50t113.5 -21q80 0 148.5 25.5t119 77.5t78 131t27.5 183q0 123 -46 174.5t-114 51.5q-57 0 -117.5 -18.5t-113.5 -41.5l-12 88q82 31 156.5 69t132 88t92 116.5 t34.5 154.5q0 94 -43 144.5t-127 50.5q-49 0 -82.5 -10.5t-54 -25.5t-29 -32.5t-8.5 -31.5q0 -10 4 -27h56q6 -23 6 -49q0 -59 -33 -94t-94 -35q-51 0 -79 30.5t-28 84.5q0 72 35 125t92.5 87.5t130 52t148.5 17.5q154 0 233.5 -75.5t79.5 -188.5q0 -78 -25.5 -134.5 t-74.5 -102.5t-122 -86t-167 -83v-8q33 8 63.5 11.5t59.5 3.5q70 0 119 -25t79.5 -65.5t44 -95t13.5 -113.5q0 -100 -45 -193.5t-123 -165.5t-183.5 -115t-226.5 -43q-66 0 -121 12.5t-95 40t-63.5 70.5t-23.5 105z" />
<glyph unicode="4" horiz-adv-x="1024" d="M0 362l14 103q172 193 288 330t185.5 235t99 165t29.5 120q0 45 -22 96l68 53q82 -4 130 -43t48 -102q0 -47 -17.5 -87t-74 -105.5t-161 -173t-276.5 -289.5l-188 -199h448l52 332l211 73l-68 -405h174l-16 -103h-176l-62 -362h-192l61 362h-555z" />
<glyph unicode="5" horiz-adv-x="974" d="M-25 197q0 86 41 132t111 46q57 0 80.5 -28t23.5 -68q0 -49 -18 -95h-70q-14 -25 -14 -43q0 -31 36 -50t114 -19q82 0 148.5 30.5t114.5 90t74.5 149.5t26.5 211q0 227 -178 227q-74 0 -141.5 -31.5t-130.5 -78.5l-48 26l179 723l32 17q68 -23 146 -42.5t164 -19.5 q41 0 77.5 6t67.5 22.5t54.5 46.5t37.5 77l55 -10q-45 -330 -387 -330q-55 0 -104 11t-94 28l-111 -428q43 29 115 59.5t164 30.5q82 0 142 -24.5t100 -67.5t58.5 -101.5t18.5 -126.5q0 -131 -44 -239.5t-123 -186.5t-186.5 -121t-234.5 -43q-55 0 -108 11.5t-95 38 t-68 67.5t-26 103z" />
<glyph unicode="6" horiz-adv-x="997" d="M59 414q0 100 16.5 217t49.5 233.5t86 223t125 188.5t166 131t211 49q123 0 187.5 -56.5t64.5 -142.5q0 -47 -12.5 -79.5t-32 -53t-44 -29t-51.5 -8.5q-41 0 -67.5 20.5t-26.5 66.5q0 20 5 43.5t16 44.5h59q10 25 10 38q0 33 -28.5 47.5t-81.5 14.5q-72 0 -133.5 -33 t-113.5 -106.5t-96 -192.5t-79 -293q25 37 60.5 69t77.5 56.5t88 38.5t93 14q129 0 211 -81.5t82 -249.5q0 -133 -39 -245t-106.5 -191.5t-160.5 -125t-202 -45.5q-160 0 -247 106.5t-87 330.5zM254 334q0 -123 39 -193.5t123 -70.5q70 0 124 40t91 112.5t56.5 172 t19.5 215.5q0 195 -152 195q-66 0 -121 -39t-95 -103.5t-62.5 -149.5t-22.5 -179z" />
<glyph unicode="7" horiz-adv-x="872" d="M86 1100l86 338l49 8q23 -16 64 -25.5t118 -9.5h531l12 -49q-66 -68 -156 -203t-208 -358h221l-17 -78h-243q-55 -113 -90 -197t-54.5 -146.5t-28 -107.5t-8.5 -79q0 -47 9.5 -79t29.5 -63l-53 -65q-37 -4 -73.5 7t-67.5 35.5t-50.5 60.5t-19.5 85q0 37 9.5 79t39 102.5 t83 148.5t139.5 219h-238l16 78h271q104 164 169.5 261t114.5 163h-446q-31 0 -49.5 -6.5t-32.5 -20.5t-27.5 -41t-29.5 -65z" />
<glyph unicode="8" horiz-adv-x="997" d="M4 307q0 90 29.5 167t84 134.5t130.5 93t166 46.5v6q-111 16 -180.5 91t-69.5 197q0 88 34.5 164t96 131.5t145.5 87t181 31.5q166 0 255 -75.5t89 -223.5q0 -80 -27 -149.5t-74 -123t-112.5 -87t-141.5 -43.5l-2 -9q139 -16 212 -90.5t73 -216.5q0 -109 -39 -193.5 t-107.5 -144t-161.5 -91.5t-200 -32q-180 0 -280.5 81t-100.5 249zM205 313q0 -119 48 -182t150 -63q127 0 209 99t82 292q0 129 -50 183t-142 54q-59 0 -112.5 -24.5t-94.5 -71.5t-65.5 -119.5t-24.5 -167.5zM354 1014q0 -102 45 -155.5t121 -53.5q51 0 97.5 20.5t80 63.5 t53 108.5t19.5 155.5q0 109 -42 159t-124 50q-63 0 -110.5 -31t-78 -80t-46 -111.5t-15.5 -125.5z" />
<glyph unicode="9" horiz-adv-x="997" d="M18 184q0 49 13.5 83t33 54.5t45 29.5t50.5 9q41 0 69.5 -21.5t28.5 -72.5q0 -16 -4 -38.5t-14 -45.5h-64q-6 -10 -10 -24.5t-4 -24.5q0 -61 117 -61q70 0 131 32.5t115.5 106.5t97.5 193.5t75 291.5q-53 -78 -142 -128t-181 -50q-127 0 -209 82t-82 250q0 133 39 244.5 t106.5 191.5t160.5 125t202 45q158 0 245 -106.5t87 -329.5q0 -106 -16.5 -225t-50.5 -235t-86 -221.5t-124 -185t-165 -128t-208 -48.5t-185.5 53.5t-70.5 153.5zM276 823q0 -194 152 -194q66 0 121 39t96 103.5t63.5 149.5t22.5 179q0 123 -40 193.5t-124 70.5 q-70 0 -124 -40t-91 -112.5t-56.5 -172t-19.5 -216.5z" />
<glyph unicode=":" horiz-adv-x="458" d="M-12 98q0 82 51 129t119 47q53 0 87 -28.5t34 -85.5q0 -82 -51.5 -131t-121.5 -49q-68 0 -93 37.5t-25 80.5zM106 776q0 82 51 129t119 47q53 0 87 -28.5t34 -85.5q0 -82 -51 -131.5t-121 -49.5q-68 0 -93.5 38t-25.5 81z" />
<glyph unicode=";" horiz-adv-x="487" d="M-47 -260q33 25 70.5 55.5t69.5 66.5t52.5 73.5t20.5 76.5t-29 45l-69 -63q-29 10 -52.5 42t-23.5 77q0 72 47 115.5t119 43.5q70 0 103.5 -50t33.5 -116q0 -70 -23.5 -128t-65.5 -109t-96.5 -97t-115.5 -89zM117 776q0 82 51 129t119 47q53 0 87 -28.5t34 -85.5 q0 -82 -51.5 -131.5t-120.5 -49.5q-68 0 -93.5 38t-25.5 81z" />
<glyph unicode="&#x3c;" d="M72 479l26 158l936 391l-22 -133l-805 -334l692 -338l-25 -141z" />
<glyph unicode="=" d="M68 338l20 119h875l-21 -119h-874zM125 678l20 119h875l-21 -119h-874z" />
<glyph unicode="&#x3e;" d="M12 82l25 141l803 338l-690 334l22 133l805 -391l-27 -158z" />
<glyph unicode="?" horiz-adv-x="935" d="M166 616q0 100 42 161t104.5 101t136 66.5t136 58t104.5 75.5t42 118q0 82 -52 127t-134 45q-86 0 -135.5 -31.5t-49.5 -81.5q0 -14 2 -20h58q6 -23 6 -43q0 -53 -29.5 -89t-89.5 -36q-57 0 -85.5 34t-28.5 83q0 70 34.5 121t88 84.5t119 50t124.5 16.5q80 0 142.5 -21.5 t104.5 -58.5t63.5 -86t21.5 -104q0 -100 -43 -161.5t-108.5 -102.5t-140.5 -68t-140.5 -58.5t-108.5 -74.5t-43 -115q0 -78 41 -108.5t101 -30.5q82 0 130 53t70 119l88 -25q-14 -47 -38.5 -89t-61.5 -74.5t-88 -52t-117 -19.5q-125 0 -195.5 64.5t-70.5 172.5zM207 80 q0 72 43 112.5t102 40.5q47 0 77 -24.5t30 -73.5q0 -72 -45 -115t-105 -43q-59 0 -80.5 33t-21.5 70z" />
<glyph unicode="@" horiz-adv-x="1595" d="M37 227q0 193 63.5 363t178 297t277.5 201.5t364 74.5q127 0 231 -32.5t180 -98t117 -163t41 -226.5q0 -98 -28.5 -213t-86 -213t-141.5 -164.5t-197 -66.5q-104 0 -148 42t-48 101q-43 -59 -112 -99t-150 -40q-57 0 -96.5 20.5t-62 54t-32.5 77.5t-10 91q0 96 29.5 199 t88 186.5t143.5 137t196 53.5q59 0 104 -20.5t74 -55.5l43 62h121l-127 -373q-31 -94 -47.5 -152.5t-16.5 -113.5q0 -47 22.5 -67.5t67.5 -20.5q80 0 140.5 60t100.5 148.5t60.5 185.5t20.5 171q0 217 -124 332.5t-380 115.5q-170 0 -310.5 -67.5t-239.5 -183t-153.5 -269 t-54.5 -328.5q0 -147 44 -247.5t119 -162t173 -87t207 -25.5q147 0 258 45t199 115l39 -64q-49 -43 -112 -75.5t-129.5 -56t-136 -35t-134.5 -11.5q-135 0 -249 37t-198 110.5t-131 186.5t-47 264zM537 240q0 -59 23.5 -103.5t80.5 -44.5q37 0 73 20.5t67.5 52.5t55 69.5 t33.5 72.5l109 342q-23 33 -59.5 51.5t-85.5 18.5q-72 0 -127.5 -43t-93.5 -110.5t-57 -153.5t-19 -172z" />
<glyph unicode="A" horiz-adv-x="1210" d="M-137 0l14 80l129 16l676 1350h100l201 -1350l133 -16l-14 -80h-514l14 80l154 16l-43 346h-428l-164 -346l143 -16l-14 -80h-387zM340 553h360l-69 575h-6z" />
<glyph unicode="B" horiz-adv-x="1126" d="M-39 0l14 82l154 14l207 1243l-152 13l17 82h424q102 0 186 -15.5t142.5 -51.5t90 -95.5t31.5 -147.5q0 -129 -95 -229t-261 -133l-2 -8q61 -10 117.5 -34t97.5 -61.5t65.5 -90t24.5 -119.5q0 -131 -56.5 -218.5t-147.5 -138.5t-206.5 -71.5t-234.5 -20.5h-416zM334 94 h92q86 0 155.5 19.5t120 62.5t78 110.5t27.5 162.5q0 137 -69.5 189t-213.5 52h-92zM449 788h47q76 0 144.5 20.5t119.5 63.5t80.5 106.5t29.5 149.5q0 113 -67.5 162t-206.5 49h-55z" />
<glyph unicode="C" horiz-adv-x="1183" d="M53 535q0 150 47 312.5t140.5 297.5t230.5 223t320 88q55 0 101 -9t81 -21.5t60.5 -21.5t39.5 -9q23 0 33 11t22 32h72l-59 -428h-82q-4 98 -23.5 164.5t-54.5 106.5t-86 57.5t-117 17.5q-96 0 -171 -39t-131 -105.5t-95 -151.5t-63.5 -178.5t-35 -187.5t-10.5 -176 q0 -205 77 -317.5t237 -112.5q143 0 247.5 85t172.5 284l92 -27q-41 -141 -108.5 -229t-144.5 -138.5t-156 -68t-140 -17.5q-233 0 -364.5 138.5t-131.5 419.5z" />
<glyph unicode="D" horiz-adv-x="1331" d="M-41 0l14 82l156 14l207 1243l-152 13l15 82h456q133 0 246 -28t194 -91.5t126 -166.5t45 -255q0 -197 -58.5 -360.5t-171 -282.5t-279.5 -184.5t-382 -65.5h-416zM332 92h78q166 0 286.5 69.5t199.5 183.5t117 261.5t38 300.5q0 125 -31 209t-89.5 133t-145.5 69.5 t-199 20.5h-45z" />
<glyph unicode="E" horiz-adv-x="1159" d="M-29 0l13 80l145 16l207 1241l-139 17l14 80h922l-52 -385h-86q-4 94 -18 151t-49 89t-91.5 43t-142.5 11h-153l-95 -563h93q55 0 93 12.5t65.5 42t49 75.5t44.5 114h71l-102 -606h-76q1 27 1 50q0 47 -3 81q-4 51 -24.5 79.5t-57.5 39t-98 10.5h-72l-98 -584h155 q104 0 177 17.5t124.5 60.5t88 112.5t69.5 174.5h84l-90 -459h-969z" />
<glyph unicode="F" horiz-adv-x="1079" d="M-27 0l13 80l145 14l207 1243l-139 17l14 80h922l-52 -394h-86q-2 94 -16 152.5t-48 92.5t-90.5 46t-142.5 12h-157l-97 -577h91q55 0 93 12.5t66.5 42t50 75.5t44.5 114h71l-100 -607h-78q1 23 1 43q0 50 -4 88q-5 52 -24.5 80.5t-56.5 39t-98 10.5h-72l-94 -568 l227 -16l-14 -80h-576z" />
<glyph unicode="G" horiz-adv-x="1261" d="M53 516q0 162 47 329t141.5 303t233.5 222t322 86q57 0 100 -9t76 -20.5t58.5 -20.5t45.5 -9q23 0 33 10t23 31h61l-59 -428h-74q-6 90 -22.5 155.5t-49.5 107.5t-85 62.5t-126 20.5q-96 0 -171 -41t-131 -108.5t-96 -154.5t-63.5 -179.5t-35 -183.5t-11.5 -165 q0 -217 75 -330.5t228 -113.5q72 0 145 20.5t116 59.5l55 348l-164 16l16 80h486l-17 -80l-127 -14l-63 -381q-39 -33 -96.5 -60.5t-122 -48t-132 -32t-128.5 -11.5q-225 0 -356.5 135.5t-131.5 403.5z" />
<glyph unicode="H" horiz-adv-x="1437" d="M-29 0l17 80l143 16l207 1241l-139 15l16 82h487l-16 -80l-143 -15l-90 -551h553l90 549l-140 15l19 82h487l-16 -80l-143 -15l-207 -1243l139 -16l-16 -80h-488l17 80l143 16l96 582h-555l-96 -582l139 -16l-16 -80h-488z" />
<glyph unicode="I" horiz-adv-x="677" d="M-27 0l13 80l145 14l207 1243l-139 15l16 82h485l-14 -80l-143 -15l-207 -1243l139 -14l-14 -82h-488z" />
<glyph unicode="J" horiz-adv-x="905" d="M-43 195q0 35 10 68.5t30.5 60t52.5 43t73 16.5q59 0 84.5 -28.5t28.5 -73.5q0 -51 -21 -99h-80q-8 -18 -8 -41q0 -63 106 -63q176 0 213 227l170 1034l-170 15l17 80h512l-17 -80l-137 -13l-151 -931q-35 -217 -152 -325t-307 -108q-66 0 -114 18.5t-78.5 49.5t-46 70 t-15.5 80z" />
<glyph unicode="K" horiz-adv-x="1273" d="M-20 0l14 82l135 14l207 1243l-131 15l14 80h473l-14 -80l-137 -15l-97 -587l125 55l465 532l-135 15l16 80h388l-15 -80l-125 -15l-456 -532l340 -713l124 -14l-14 -80h-487l14 80l131 14l-270 600l-119 -51l-92 -547l133 -14l-14 -82h-473z" />
<glyph unicode="L" horiz-adv-x="1122" d="M-27 0l13 80l145 16l205 1239l-137 17l16 82h535l-17 -80l-192 -19l-205 -1241h110q100 0 174 13.5t127.5 52.5t93.5 110.5t77 188.5h90l-93 -459h-942z" />
<glyph unicode="M" horiz-adv-x="1681" d="M-4 0l16 82l117 14l207 1245l-115 13l15 80h411l139 -1076h7l487 1076h418l-15 -80l-139 -13l-205 -1245l134 -14l-15 -82h-469l15 82l139 14l203 1241h-7l-606 -1337h-100l-184 1335h-9l-200 -1239l122 -14l-14 -82h-352z" />
<glyph unicode="N" horiz-adv-x="1370" d="M-6 0l16 82l117 12l209 1243l-117 15l14 82h394l356 -1028h6l156 931l-117 15l16 82h345l-17 -82l-121 -15l-225 -1337h-106l-476 1323h-8l-198 -1229l133 -12l-17 -82h-360z" />
<glyph unicode="O" horiz-adv-x="1304" d="M51 528q0 102 20.5 211t61.5 211.5t102.5 194.5t142.5 161.5t182.5 109.5t223.5 40q223 0 341 -138t118 -405q0 -154 -43 -318.5t-132 -301.5t-224 -226.5t-322 -89.5q-225 0 -348 137.5t-123 413.5zM264 492q0 -88 15.5 -164t48 -131.5t86 -86t131.5 -30.5 q96 0 169.5 45t127 118.5t90.5 168t58.5 194t30.5 194.5t9 171q0 86 -13 156.5t-45 120.5t-84 79t-128 29q-139 0 -233.5 -85t-153 -214t-84 -280.5t-25.5 -284.5z" />
<glyph unicode="P" horiz-adv-x="1148" d="M-39 0l14 82l154 14l207 1243l-152 15l17 80h471q94 0 180 -15.5t150.5 -54.5t103.5 -105.5t39 -166.5q0 -137 -53.5 -232.5t-142.5 -156t-205.5 -88t-245.5 -27.5h-82l-82 -492l223 -14l-16 -82h-580zM432 682h64q203 0 314.5 107.5t111.5 297.5q0 72 -20.5 120 t-57.5 78t-89.5 42t-115.5 12h-98z" />
<glyph unicode="Q" horiz-adv-x="1286" d="M43 528q0 102 20.5 211t61.5 211.5t102.5 194.5t142.5 161.5t182 109.5t224 40q223 0 340 -138t117 -405q0 -137 -36 -283.5t-107.5 -273.5t-182 -220t-258.5 -126v-12q66 -10 112 -25.5t82 -40t64.5 -61.5t59.5 -94q27 -49 49 -81t41.5 -50.5t39 -25.5t44.5 -7 q43 0 73.5 27.5t59.5 64.5l61 -51q-12 -20 -36.5 -47t-57.5 -49.5t-74 -39t-88 -16.5q-49 0 -94 8.5t-87 35t-80 72.5t-70 124q-31 70 -53.5 113t-53.5 69.5t-76 42t-121 27.5q-98 16 -172.5 54t-126 102.5t-77 157.5t-25.5 220zM256 492q0 -88 15.5 -164t48 -131.5t86 -86 t131.5 -30.5q96 0 169.5 45t127 118.5t90.5 168t58.5 194t30.5 194.5t9 171q0 86 -13.5 156.5t-45 120.5t-84 79t-127.5 29q-139 0 -233.5 -85t-153 -214t-84 -280.5t-25.5 -284.5z" />
<glyph unicode="R" horiz-adv-x="1230" d="M-39 0l14 82l154 16l207 1239l-152 17l17 80h436q82 0 165 -10.5t149.5 -41t108.5 -88t42 -151.5q0 -98 -36 -170t-97.5 -119t-145.5 -73.5t-180 -35.5v-12q66 -10 112 -32.5t75.5 -60.5t45 -96.5t19.5 -140.5l6 -145q2 -59 20.5 -106.5t65.5 -47.5q33 0 55.5 20.5 t40.5 45.5l62 -55q-39 -57 -93.5 -97.5t-129.5 -40.5q-57 0 -95.5 15.5t-62 49.5t-35.5 90t-20 138l-15 160q-6 59 -14 106.5t-29.5 81t-61.5 52t-106 18.5h-51l-98 -590l184 -16l-16 -82h-541zM449 782h36q76 0 146.5 19.5t124 61.5t85 107.5t31.5 157.5q0 111 -69.5 160 t-216.5 49h-45z" />
<glyph unicode="S" horiz-adv-x="1015" d="M-31 -8l62 454h84q4 -74 21.5 -140t55 -117.5t99 -82t151.5 -30.5q55 0 108.5 15t95.5 48t67.5 84t25.5 125q0 88 -44 139.5t-109.5 87t-141 65.5t-141 75t-109.5 116.5t-44 188.5q0 86 30.5 166t89 139t139 95t183.5 36q53 0 95 -13t75 -28.5t56.5 -28t41.5 -12.5 t30.5 15.5t27.5 48.5h71l-57 -418h-86q-14 180 -73.5 260t-188.5 80q-51 0 -99.5 -14.5t-86.5 -44t-60.5 -76.5t-22.5 -115q0 -88 44 -140t108.5 -89t141.5 -68t141.5 -75t108.5 -111.5t44 -177.5q0 -106 -37 -193.5t-100.5 -149t-148.5 -95.5t-179 -34q-74 0 -127 15.5 t-92 33t-66.5 33t-48.5 15.5q-20 0 -33.5 -18.5t-29.5 -63.5h-72z" />
<glyph unicode="T" horiz-adv-x="1179" d="M96 1022l90 412h1051l-53 -412h-86q0 111 -13.5 173t-45 95t-85 41t-135.5 8h-22l-205 -1243l170 -14l-12 -82h-553l14 82l176 14l207 1243h-64q-74 0 -123 -12t-85.5 -47t-67.5 -96.5t-64 -161.5h-94z" />
<glyph unicode="U" horiz-adv-x="1339" d="M156 303q0 66 8 124t20 130l133 782l-133 13l17 82h473l-15 -82l-139 -13q-35 -219 -72.5 -435t-70.5 -437q-6 -41 -9 -73t-3 -66q0 -131 64 -187.5t179 -56.5q160 0 246 90t117 283l145 880l-133 15l16 82h375l-16 -82l-129 -15l-148 -874q-18 -115 -56 -204 t-100.5 -152.5t-152.5 -96.5t-215 -33q-90 0 -164 16.5t-127 55.5t-81.5 101.5t-28.5 152.5z" />
<glyph unicode="V" horiz-adv-x="1187" d="M92 1352l14 82h523l-17 -82l-178 -17l144 -1034h4l495 1034l-155 17l14 82h387l-16 -82l-121 -17l-664 -1355h-90l-221 1355z" />
<glyph unicode="W" horiz-adv-x="1820" d="M92 1354l14 80h517l-15 -80l-178 -19l117 -1024h8l379 746l-49 278l-115 19l12 80h512l-14 -80l-178 -19l158 -997h8l442 997l-160 19l17 80h379l-15 -80l-112 -19l-613 -1355h-88l-157 940l-482 -940h-86l-186 1355z" />
<glyph unicode="X" horiz-adv-x="1183" d="M-86 0l12 82l125 14l420 623l-242 616l-116 15l14 84h530l-16 -84l-178 -15l182 -506l334 506l-131 15l14 84h379l-16 -84l-121 -15l-418 -594l262 -645l119 -14l-14 -82h-529l17 82l172 14l-197 522l-348 -522l143 -14l-16 -82h-381z" />
<glyph unicode="Y" horiz-adv-x="1083" d="M88 1350l14 84h521l-15 -84l-174 -15l170 -553h6l357 553l-142 15l17 84h381l-15 -84l-123 -15l-448 -671l-92 -568l151 -14l-12 -82h-518l16 82l158 14l92 568l-227 671z" />
<glyph unicode="Z" horiz-adv-x="1114" d="M-37 0l17 90l888 1243h-239q-78 0 -137.5 -8t-107.5 -39t-87 -93.5t-78 -170.5h-72l89 412h880l-16 -101l-885 -1235h295q88 0 152.5 22.5t111.5 67.5t83 113t67 158h73l-98 -459h-936z" />
<glyph unicode="[" horiz-adv-x="589" d="M18 -287l324 1927h375l-17 -92h-104q-35 0 -57.5 -3t-37 -14t-22.5 -31.5t-14 -57.5l-256 -1528q-6 -39 -6 -60.5t10 -32.5t31.5 -13.5t56.5 -2.5h107l-15 -92h-375z" />
<glyph unicode="\" horiz-adv-x="712" d="M170 1628h121l262 -1827h-121z" />
<glyph unicode="]" horiz-adv-x="589" d="M-137 -287l16 92h105q35 0 57 3.5t36.5 14.5t23 31.5t14.5 57.5l256 1528q6 39 6 60.5t-10.5 32.5t-32 13t-55.5 2h-107l14 92h375l-323 -1927h-375z" />
<glyph unicode="^" horiz-adv-x="1052" d="M111 614l370 746h94l381 -746l-98 -45l-332 650l-321 -652z" />
<glyph unicode="_" horiz-adv-x="950" d="M-8 -141h962v-76h-962v76z" />
<glyph unicode="`" horiz-adv-x="937" d="M543 1477q0 20 12 35.5t30.5 24.5t40 9t40.5 -8l59 -27l78 -370l-49 -21l-179 273q-12 18 -22 38.5t-10 45.5z" />
<glyph unicode="a" horiz-adv-x="1067" d="M29 328q0 115 31.5 240.5t94 230t153.5 173t212 68.5q86 0 143.5 -39.5t92.5 -130.5l39 146q45 0 85 3t87 9q-43 -199 -85 -403.5t-71 -376.5q-8 -45 -10 -61.5t-2 -34.5q0 -61 61 -62q29 0 51.5 18.5t44.5 47.5l52 -45q-14 -23 -34 -45.5t-45.5 -43t-56 -33t-67.5 -12.5 q-86 0 -124 45.5t-38 112.5q0 33 6 67t15 66l-11 2q-25 -55 -57.5 -107t-77.5 -94t-100.5 -67t-124.5 -25q-129 0 -196.5 90.5t-67.5 260.5zM225 319q0 -96 28.5 -154.5t106.5 -58.5q53 0 100.5 32t86.5 84t68.5 118t51 134.5t32 134t10.5 116.5q0 45 -9.5 85t-30 70.5 t-52 48t-76.5 17.5q-86 0 -146.5 -61.5t-97.5 -153.5t-54.5 -202.5t-17.5 -209.5z" />
<glyph unicode="b" horiz-adv-x="1011" d="M70 328q0 80 16 178t33 201l123 735l-148 18l15 76h325l6 -20l-161 -775l8 -2q68 141 164 221t221 80q127 0 188.5 -93t61.5 -257q0 -111 -31 -235.5t-94.5 -231t-161.5 -176.5t-234 -70q-94 0 -157.5 26t-102.5 72t-55 110.5t-16 142.5zM242 307q0 -102 38.5 -168.5 t131.5 -66.5q84 0 143 61.5t96 153.5t54.5 202.5t17.5 208.5q0 96 -27.5 154.5t-105.5 58.5q-55 0 -102.5 -30.5t-86.5 -80.5t-68.5 -114.5t-50 -131.5t-30.5 -131.5t-10 -115.5z" />
<glyph unicode="c" horiz-adv-x="903" d="M29 365q0 125 35.5 245.5t104.5 216t172.5 154.5t238.5 59t202.5 -70.5t67.5 -174.5q0 -78 -37 -132.5t-117 -54.5q-51 0 -82.5 24.5t-31.5 72.5q0 57 32 104h68q12 33 12 63q0 39 -31.5 58.5t-84.5 19.5q-98 0 -166 -53t-110 -138t-60.5 -188.5t-18.5 -203.5 q0 -131 45 -203t150 -72q106 0 170.5 70.5t111.5 197.5l88 -26q-18 -68 -53 -132.5t-87 -113.5t-122.5 -80t-163.5 -31q-166 0 -249.5 103.5t-83.5 284.5z" />
<glyph unicode="d" horiz-adv-x="1067" d="M29 328q0 111 30.5 235.5t92 231t153.5 176t215 69.5q88 0 143.5 -39.5t84.5 -109.5l88 549l-162 20l12 76h340l6 -20l-219 -1258q-10 -53 -12 -72.5t-2 -31.5q0 -63 61 -64q29 0 51.5 18.5t44.5 47.5l52 -45q-14 -23 -34 -45.5t-45.5 -43t-56 -33t-67.5 -12.5 q-86 0 -124 47.5t-38 122.5q0 55 19 121l-11 2q-25 -55 -57.5 -107t-76.5 -94t-99.5 -67t-124.5 -25q-129 0 -196.5 92.5t-67.5 258.5zM223 319q0 -96 28.5 -154.5t106.5 -58.5q53 0 100.5 32t86.5 84t68.5 118t50 134.5t31 134t10.5 116.5q0 45 -9.5 85t-30 70.5t-51 48 t-75.5 17.5q-86 0 -146.5 -61.5t-97.5 -153.5t-54.5 -202.5t-17.5 -209.5z" />
<glyph unicode="e" horiz-adv-x="886" d="M27 362q0 129 38.5 251t109.5 217.5t168 152.5t214 57t186.5 -58t69.5 -173q0 -86 -32.5 -147.5t-84 -103.5t-117 -68.5t-131 -41t-125 -19.5t-100.5 -7v-30q1 -62 7 -112q8 -62 30.5 -103.5t60 -62t97.5 -20.5q82 0 153.5 58.5t130.5 209.5l86 -28 q-49 -166 -162.5 -261.5t-269.5 -95.5q-160 0 -244.5 101.5t-84.5 283.5zM231 504q80 6 153 25.5t128 56.5t88 93t33 136q0 70 -30 102.5t-81 32.5q-43 0 -88 -29.5t-85 -86t-71.5 -140.5t-46.5 -190z" />
<glyph unicode="f" horiz-adv-x="626" d="M-229 -340q74 27 123 63.5t81.5 85t52 110t33.5 134.5l158 865h-147l20 100h146l14 86q14 88 48 173t89 152.5t132 109.5t181 42q102 0 157.5 -50t55.5 -136q0 -66 -34.5 -110t-104.5 -44q-51 0 -77.5 27.5t-26.5 70.5q0 16 2 29.5t6 26.5l59 6q14 27 15 49 q0 29 -20.5 39t-55.5 10q-53 0 -91 -26.5t-64.5 -71.5t-45 -105.5t-31.5 -128.5l-28 -149h276l-20 -100h-275l-168 -918q-20 -111 -57 -185.5t-92 -122.5t-127 -76t-162 -46z" />
<glyph unicode="g" horiz-adv-x="1034" d="M-33 -231q0 68 37 115.5t111 47.5q43 0 76.5 -29.5t33.5 -92.5q0 -10 -1 -22.5t-3 -25.5l-80 -12q-8 -18 -8 -37q0 -29 28.5 -45t94.5 -16q68 0 119 23.5t89 70.5t67.5 115.5t56.5 161.5q16 55 32.5 120.5t30.5 128.5l-10 2q-23 -51 -52.5 -97t-69.5 -82t-90 -56.5 t-114 -20.5q-141 0 -210.5 92.5t-69.5 258.5q0 109 30.5 227.5t91 216.5t151.5 162.5t212 64.5q86 0 144.5 -38.5t91.5 -131.5l39 146q45 0 85 3t85 9q-20 -98 -44 -219t-46.5 -245t-45 -244.5t-41.5 -219.5q-31 -152 -83 -254t-121.5 -163.5t-153.5 -88t-178 -26.5 q-133 0 -209 51t-76 150zM231 365q0 -102 32 -157.5t114 -55.5q76 0 135 57t100 141t62.5 181.5t21.5 175.5q0 115 -40 174t-117 59q-86 0 -144.5 -57.5t-95.5 -144.5t-52.5 -187t-15.5 -186z" />
<glyph unicode="h" horiz-adv-x="1064" d="M20 -14l91 397l172 1059l-152 18l14 76h322l6 -20l-178 -865l12 -6q33 74 75 144.5t94 127t116.5 90t140.5 33.5q92 0 143.5 -58t51.5 -159q0 -76 -22.5 -162t-50.5 -173t-50.5 -171t-22.5 -157q0 -39 16.5 -54.5t47.5 -15.5q47 0 96 66l53 -47q-39 -57 -91 -94.5 t-128 -37.5q-84 0 -128 45.5t-44 124.5q0 61 23.5 150.5t52.5 185t52.5 186.5t23.5 156q0 88 -72 88q-55 0 -111.5 -47t-106.5 -115.5t-89 -147.5t-58 -140q-41 -131 -64.5 -256t-33.5 -201h-23q-36 0 -80 -4q-58 -6 -98 -16z" />
<glyph unicode="i" horiz-adv-x="544" d="M72 139q0 39 8 89.5t26 138.5q16 74 34 152.5t33 153.5t29.5 140.5t24.5 112.5l-147 16l14 76h326l8 -21q-35 -152 -69.5 -298t-71.5 -322q-10 -47 -21.5 -107.5t-11.5 -101.5q0 -78 68 -78q53 0 100 66l53 -47q-41 -68 -100.5 -100t-116.5 -32q-186 0 -186 162z M248 1346q0 57 34.5 102t104.5 45q47 0 76 -22.5t29 -79.5q0 -61 -35 -104.5t-103 -43.5q-59 0 -82.5 27.5t-23.5 75.5z" />
<glyph unicode="j" horiz-adv-x="509" d="M-225 -340q74 27 124 63.5t82.5 85t53 110t33.5 134.5l145 873l-147 16l14 76h321l9 -21l-174 -997q-20 -111 -57.5 -185.5t-92.5 -122.5t-127 -76t-162 -46zM248 1346q0 57 34.5 102t104.5 45q47 0 76 -22.5t29 -79.5q0 -61 -35 -104.5t-105 -43.5q-59 0 -81.5 27.5 t-22.5 75.5z" />
<glyph unicode="k" horiz-adv-x="978" d="M20 -18l101 454l158 998l-152 16l14 86h330l6 -18l-178 -986l188 123q104 66 156.5 108t52.5 89v10l-71 29q0 4 -1 9t-1 9q0 55 34.5 99.5t102.5 44.5q59 0 90 -38t31 -85q0 -51 -24.5 -96t-90.5 -86q-63 -41 -144 -92.5t-151 -92.5l4 -10q29 4 55.5 7t49.5 3 q90 0 130 -40t40 -103q0 -31 -11 -76l-32 -133q-4 -14 -6.5 -30.5t-2.5 -28.5q0 -29 14.5 -45.5t49.5 -16.5t59.5 21.5t46.5 50.5l52 -47q-10 -14 -29 -37t-46.5 -45.5t-63.5 -39t-79 -16.5q-35 0 -67.5 9.5t-58 29t-41 51t-15.5 76.5q0 18 3 41t14 58l20 77q10 35 12 52.5 t2 27.5q0 41 -25.5 65.5t-78.5 24.5q-37 0 -88 -17t-94 -44l-72 -420q-41 0 -94 -7t-99 -19z" />
<glyph unicode="l" horiz-adv-x="530" d="M68 154q0 55 21.5 175t62.5 326q14 78 32.5 174.5t38 200t39 208.5t37.5 202l-154 20l15 76h332l6 -20q-14 -63 -38 -179t-51.5 -255.5t-55 -289t-51 -277.5t-38 -222t-14.5 -125q0 -78 67 -78q53 0 101 66l53 -47q-41 -68 -100.5 -100t-116.5 -32q-186 0 -186 177z" />
<glyph unicode="m" horiz-adv-x="1560" d="M29 -14l90 397l78 541l-152 18l14 76h322l6 -21l-84 -346l12 -6q33 80 71 151.5t87 126t109.5 86t136.5 31.5q33 0 61.5 -9t50 -28.5t35 -52t13.5 -80.5q0 -82 -45 -208l12 -7q47 117 92 192t90 118t91 59t95 16q205 0 205 -229q0 -76 -23.5 -160t-51 -169t-50 -168 t-22.5 -154q0 -31 15.5 -50.5t47.5 -19.5q23 0 46.5 14.5t52.5 51.5l53 -47q-37 -59 -94.5 -95.5t-120.5 -36.5q-86 0 -131 43t-45 123q0 66 23.5 156t52 184.5t52 183.5t23.5 154q0 49 -19.5 70.5t-53.5 21.5q-45 0 -90.5 -41t-87.5 -107.5t-79.5 -151.5t-68.5 -173 q-33 -92 -57.5 -205.5t-45.5 -230.5q-47 0 -99 -6t-97 -12q16 106 47 229t61.5 240.5t54 218t23.5 162.5q0 77 -63 77h-2q-51 0 -104.5 -47t-100.5 -117.5t-85 -150.5t-56 -143q-16 -55 -29.5 -108.5t-25 -107t-21.5 -110.5t-19 -123h-16q-43 0 -95 -6t-89 -14z" />
<glyph unicode="n" horiz-adv-x="1075" d="M29 -14l90 397l78 541l-152 18l14 76h322l6 -21l-84 -346l12 -6q33 74 75 144.5t94.5 127t117 90t139.5 33.5q92 0 143.5 -60t51.5 -165q0 -82 -22.5 -163t-50 -161.5t-50 -162.5t-22.5 -168q0 -39 16 -54.5t47 -15.5q47 0 96 66l54 -47q-39 -57 -91.5 -94.5 t-128.5 -37.5q-84 0 -128 45.5t-44 124.5q0 61 23.5 150.5t52.5 185t52.5 186.5t23.5 156q0 88 -72 88q-45 0 -97 -36.5t-102.5 -99t-93.5 -144.5t-71 -170q-41 -131 -64.5 -256t-34.5 -201h-23q-36 0 -79 -4q-57 -6 -98 -16z" />
<glyph unicode="o" horiz-adv-x="991" d="M27 360q0 119 34.5 240t102 219.5t168 159.5t231.5 61q178 0 260 -104.5t82 -276.5q0 -117 -33.5 -238.5t-101.5 -220t-168 -161t-231 -62.5q-176 0 -260 104.5t-84 278.5zM219 322q0 -115 40 -183.5t136 -68.5q59 0 106.5 30.5t82 80.5t59.5 114.5t40 134.5t21.5 139.5 t6.5 128.5q0 106 -39 178t-137 72q-90 0 -150.5 -64.5t-97.5 -159.5t-52.5 -204.5t-15.5 -197.5z" />
<glyph unicode="p" horiz-adv-x="1073" d="M-131 -410l16 82l119 15l205 1237l-150 18l15 76h319l8 -21l-63 -256l10 -2q61 135 155.5 218t229.5 83q127 0 188.5 -93t61.5 -257q0 -113 -30.5 -237.5t-92 -230t-153 -175.5t-213.5 -70q-92 0 -155 42t-87 102l-68 -430l226 -19l-15 -82h-526zM303 293q0 -45 9.5 -85 t28.5 -71t51 -48t77 -17q86 0 146.5 61.5t98.5 153.5t54 202.5t16 208.5q0 96 -27.5 154.5t-105.5 58.5q-55 0 -102 -31.5t-86 -84t-68.5 -118t-50 -134t-31 -134t-10.5 -116.5z" />
<glyph unicode="q" horiz-adv-x="1038" d="M29 330q0 70 13 148.5t40 158.5t66.5 152.5t95 128t125 89t155.5 33.5q92 0 150.5 -42t97.5 -126l133 146h53l-227 -1329l156 -17l-15 -82h-516l15 82l186 17l107 571l-11 2q-25 -53 -58.5 -104.5t-77.5 -91t-97 -64.5t-115 -25q-141 0 -208.5 93.5t-67.5 259.5zM225 319 q0 -96 28.5 -154.5t106.5 -58.5q53 0 100.5 32t86.5 84t68.5 118t51 134.5t32 134t10.5 116.5q0 45 -9.5 85t-30 70.5t-52 48t-76.5 17.5q-86 0 -146.5 -61.5t-97.5 -153.5t-54.5 -202.5t-17.5 -209.5z" />
<glyph unicode="r" horiz-adv-x="876" d="M29 -16l96 438l72 502l-150 18l14 76h320l8 -21l-92 -374l12 -7q31 82 69 158t84 135.5t104.5 95t129.5 35.5q66 0 113 -38.5t47 -112.5q0 -80 -46 -115t-105 -35q-14 0 -27.5 2t-28.5 7l-6 112q-16 16 -47 17q-33 0 -70 -38t-73.5 -99.5t-70.5 -139.5t-58 -158 q-35 -115 -57.5 -225.5t-33.5 -208.5q-53 -2 -106 -8t-98 -16z" />
<glyph unicode="s" horiz-adv-x="827" d="M2 205q0 70 36 117t101 47q43 0 72 -23.5t29 -71.5q0 -23 -7.5 -45t-23.5 -41h-57q-10 -20 -11 -38q0 -84 166 -84q43 0 84 10t72 32.5t49 58.5t18 89q0 57 -29.5 92t-74.5 58.5t-98.5 44t-98.5 52.5t-74.5 81t-29.5 131q0 78 31.5 138t86 102t124 63.5t143.5 21.5 q131 0 199.5 -53t68.5 -145q0 -66 -31.5 -113t-101.5 -47q-41 0 -69.5 21.5t-28.5 62.5q0 49 28 90h58q8 16 8 33q0 33 -34 48t-95 15q-37 0 -78 -9t-74.5 -30.5t-56 -56.5t-22.5 -86t31.5 -83t78.5 -56.5t101.5 -48t101.5 -57t79 -85t32 -129.5q0 -72 -31 -133t-85 -106 t-128 -70t-160 -25q-80 0 -137.5 19.5t-93 51.5t-52 73t-16.5 84z" />
<glyph unicode="t" horiz-adv-x="649" d="M70 918l16 100h137l45 264l142 41h49l-51 -305h202l-16 -100h-201q-16 -86 -26.5 -146.5t-19.5 -110t-17 -94.5t-17 -96q-14 -78 -22 -129t-12.5 -83t-5.5 -48t-1 -23q0 -96 88 -96q43 0 80 24.5t80 76.5l55 -54q-49 -74 -118.5 -118t-149.5 -44q-111 0 -165 52.5 t-54 144.5q0 29 4 67t16.5 114.5t36 209.5t62.5 353h-137z" />
<glyph unicode="u" d="M70 942l14 76h319l9 -21q-35 -141 -65 -270t-52.5 -234.5t-34.5 -181t-12 -106.5q0 -45 21.5 -72t66.5 -27q59 0 114.5 49.5t101.5 121t81 150.5t53 138q39 121 61.5 239t32.5 208h17q43 0 94 5t90 15q-35 -166 -69.5 -333t-67.5 -326q-10 -53 -21.5 -115.5t-11.5 -101.5 q0 -66 59 -66q31 0 53.5 18.5t45.5 47.5l51 -45q-14 -23 -33.5 -46.5t-45.5 -43t-56.5 -32t-67.5 -12.5q-92 0 -128 44.5t-36 121.5q0 41 11.5 88.5t23.5 98.5l-12 6q-31 -72 -67 -136.5t-83 -113.5t-106.5 -79t-134.5 -30q-115 0 -163 59.5t-48 149.5q0 29 4 62.5t10 66.5 q20 111 55 268.5t72 342.5z" />
<glyph unicode="v" horiz-adv-x="1001" d="M-6 850q100 190 248 190q72 0 115.5 -36.5t43.5 -122.5q0 -41 -8 -82q-12 -66 -22.5 -117t-19.5 -94t-16 -83t-16 -83q-10 -47 -15 -78t-7 -51.5t-3 -33.5t-1 -26q0 -61 29.5 -96t97.5 -35q57 0 108.5 32t95.5 84t78.5 120t59 139.5t38 140t13.5 125.5q0 37 -13.5 66 t-47.5 33l-62 -82q-39 10 -71.5 45t-32.5 90q0 61 39 103t110 42q51 0 88 -20.5t60.5 -54t35 -77.5t11.5 -93q0 -66 -16.5 -152t-48 -177t-81 -179t-113 -157t-142 -111t-173.5 -42q-115 0 -180 59.5t-65 184.5q0 23 4 59.5t20 127.5q10 59 18.5 102t16.5 83t18.5 85 t22.5 108q10 51 10 80q0 23 -8 38.5t-35 15.5q-29 0 -53.5 -26t-65.5 -87z" />
<glyph unicode="w" horiz-adv-x="1523" d="M-4 850q49 94 109.5 142t138.5 48q70 0 114.5 -36.5t44.5 -122.5q0 -18 -3 -42t-13 -77q-12 -68 -22.5 -116t-19.5 -95t-19.5 -99.5t-24.5 -125.5q-8 -35 -10 -65t-2 -54q0 -51 21.5 -78t70.5 -27q78 0 139.5 64.5t108.5 159.5q37 147 72.5 313t76.5 375h29q41 0 83 3 t79 11q-20 -78 -43 -170t-44.5 -187.5t-39 -186.5t-29.5 -165q-4 -23 -6 -46t-2 -42q2 -68 30.5 -98.5t98.5 -30.5q55 0 105.5 32t95.5 84t80.5 120t62.5 139.5t41 140t14 125.5q0 37 -13 66t-48 33l-62 -82q-37 10 -70.5 45t-33.5 90q0 61 39 103t112 42q51 0 88 -20.5 t61 -54t35 -77.5t11 -93q0 -68 -17.5 -156t-50 -178t-83 -177t-114 -156t-142 -110t-171.5 -41q-113 0 -173 48.5t-74 140.5q-23 -33 -54.5 -66.5t-71.5 -60.5t-86 -44.5t-100 -17.5q-104 0 -155 54.5t-51 158.5q0 29 3 61t13 89q20 111 42.5 226.5t45.5 228.5q4 25 7 42 t3 35q0 20 -8 34t-31 14q-33 0 -57.5 -26t-65.5 -87z" />
<glyph unicode="x" d="M-20 104q0 70 38.5 102t98.5 32q14 0 35 -5l8 -96q6 -6 18 -6q16 0 33.5 11.5t34 29.5t31 39.5t26.5 42.5l141 246l-108 309q-23 66 -37 90.5t-43 24.5t-50.5 -29t-55.5 -88l-68 37q101 196 243 196h1q80 0 117.5 -51t66.5 -137l65 -195l99 174q55 98 113.5 153.5 t142.5 55.5q55 0 97 -34.5t42 -96.5q0 -66 -36 -96.5t-89 -30.5q-10 0 -21.5 1t-21.5 3l-6 95q-10 8 -21 8q-23 0 -53 -26.5t-76 -98.5l-133 -215l117 -344q18 -53 35.5 -79t46.5 -26q31 0 51.5 28t50.5 81l68 -39q-45 -92 -101.5 -142.5t-121.5 -50.5q-80 0 -124 45.5 t-73 129.5l-78 233l-102 -180q-23 -39 -49.5 -79t-60 -73t-74.5 -54.5t-93 -21.5q-47 0 -85.5 30t-38.5 97z" />
<glyph unicode="y" horiz-adv-x="1021" d="M-92 -229q0 80 43 128t115 48q51 0 83.5 -29t32.5 -88q0 -12 -2 -26.5t-6 -30.5l-80 -13q-6 -10 -8 -22t-2 -23q0 -51 59 -51q82 0 158 83t162 224q-45 199 -93 408t-104 407q-18 63 -35.5 84t-42.5 21q-31 0 -57.5 -43t-52.5 -109l-72 37q41 117 93.5 183.5t152.5 66.5 q70 0 113 -48t71 -153q43 -156 81 -323.5t69 -333.5q47 82 94 172t84 173t60.5 150.5t23.5 104.5q0 33 -15.5 50.5t-39.5 21.5l-58 -76q-37 14 -61.5 49t-24.5 82q0 57 43 101t115 44q82 0 126 -54t44 -140q0 -66 -31 -156t-75 -188.5t-96 -192.5t-95 -168 q-90 -156 -159.5 -264t-132 -177t-125 -100.5t-140.5 -31.5q-100 0 -157.5 55t-57.5 148z" />
<glyph unicode="z" horiz-adv-x="972" d="M-14 72q0 66 56 104.5t130 46.5q61 82 119.5 156t118 143.5t121 137t126.5 137.5q-51 6 -103 13t-99 11t-88 7t-68 3q-57 0 -87 -34.5t-58 -118.5l-78 16q49 188 112.5 267t159.5 79q57 0 96 -19.5t91 -53.5l159 -113q10 55 30.5 91t44.5 56.5t48.5 28.5t42.5 8 q43 0 65.5 -25.5t22.5 -60.5q0 -55 -48 -102t-128 -55q-119 -152 -241.5 -300.5t-251.5 -281.5q94 -6 189 -10t163 -4q29 0 50 7t39.5 26.5t35 52t35.5 86.5l75 -17q-45 -205 -115.5 -291t-156.5 -86q-66 0 -105.5 17.5t-89.5 52.5l-161 111q-31 -111 -72 -146t-86 -35 q-47 0 -70.5 28t-23.5 67z" />
<glyph unicode="{" horiz-adv-x="649" d="M78 639l16 92q57 2 99.5 21.5t71 66.5t43 125t14.5 195v123q2 76 16 142t47 115.5t87 77t134 27.5q43 0 73 -8t52 -19l-35 -81q-16 6 -35.5 11t-46.5 5q-43 0 -67.5 -26.5t-36.5 -67.5t-14 -94.5t-2 -104.5q0 -166 -17.5 -265.5t-51.5 -156.5t-84 -82.5t-118 -46.5 q31 -12 61.5 -26.5t54 -37t39 -55t15.5 -82.5q0 -70 -21.5 -147.5t-48 -156.5t-48 -153.5t-21.5 -138.5q0 -53 26.5 -70.5t63.5 -17.5q49 0 86 19l10 -84q-20 -10 -57 -19.5t-88 -9.5q-106 0 -158.5 49t-52.5 136q0 51 22.5 128.5t50 161.5t50 167t22.5 147q0 43 -13 70.5 t-34.5 43t-49.5 21.5t-54 6z" />
<glyph unicode="|" horiz-adv-x="602" d="M92 -260l318 1888h116l-319 -1888h-115z" />
<glyph unicode="}" horiz-adv-x="649" d="M-90 -264l35 82q16 -6 35.5 -11.5t46.5 -5.5q43 0 67.5 27t36.5 68t14 93t2 105q0 166 17.5 265.5t51.5 155.5t84 83t118 47q-31 12 -61.5 26.5t-54 37t-39 55.5t-15.5 82q0 70 21.5 147.5t48 156.5t48 153.5t21.5 138.5q0 53 -26.5 70.5t-63.5 17.5q-49 0 -86 -19 l-10 84q20 10 57 19.5t88 9.5q106 0 158.5 -49t52.5 -135q0 -53 -22.5 -130t-50 -161t-50 -167t-22.5 -146q0 -43 13 -71t34.5 -43t49.5 -21.5t54 -6.5l-16 -92q-57 -2 -99 -21.5t-71 -66.5t-43.5 -125t-14.5 -194v-123q-2 -76 -16 -142.5t-47 -116t-87 -77t-134 -27.5 q-43 0 -73 8.5t-52 18.5z" />
<glyph unicode="~" horiz-adv-x="952" d="M78 614q12 39 31.5 76t45 64.5t59.5 44t75 16.5q57 0 112.5 -11t112.5 -28q55 -16 107.5 -26.5t107.5 -10.5q41 0 60.5 18.5t46.5 71.5l57 -18q-72 -203 -195 -203q-61 0 -129.5 14.5t-132.5 30.5q-49 14 -97 24.5t-97 10.5q-31 0 -56.5 -17.5t-56.5 -76.5z" />
<glyph unicode="&#xa1;" horiz-adv-x="692" d="M61 -342q0 61 24 135t56.5 171t68.5 221t62 286l27 172h96l-28 -172q-14 -94 -23.5 -178t-15.5 -166t-10.5 -163t-8.5 -167q-6 -106 -35.5 -170.5t-117.5 -64.5q-49 0 -72 26.5t-23 69.5zM266 883q0 72 45 114.5t105 42.5q59 0 80.5 -32.5t21.5 -69.5q0 -72 -44 -113 t-101 -41q-47 0 -77 25t-30 74z" />
<glyph unicode="&#xa2;" horiz-adv-x="888" d="M59 522q0 137 41 243.5t110 179.5t160 111t189 38h4l76 209l72 -17l-72 -201q86 -20 135 -77.5t49 -139.5q0 -47 -13 -82.5t-33.5 -58t-46 -34t-50.5 -11.5q-39 0 -64.5 20.5t-25.5 61.5q0 20 7 45t21 47h60q12 27 12 53q0 70 -84 88l-256 -700q16 -6 32.5 -8t35.5 -2 q109 0 168 52t102 148l68 -20q-16 -51 -46 -103.5t-75 -94.5t-106.5 -68.5t-143.5 -26.5q-41 0 -78 6l-86 -237l-67 18l86 240q-92 39 -136.5 122t-44.5 199zM250 547q0 -139 41 -201l239 655q-66 -6 -118 -44.5t-87.5 -101t-55 -142.5t-19.5 -166z" />
<glyph unicode="&#xa3;" horiz-adv-x="1060" d="M-82 137q0 53 20.5 91t53.5 62.5t73.5 36t79.5 11.5q33 0 66 -5t61 -11q6 61 7 145q0 49 -3.5 99t-9.5 96h-200l12 86h178q-4 18 -6 44.5t-5 54t-4 54.5t-1 47q0 125 41 219.5t111.5 159t163.5 97t198 32.5q154 0 227.5 -67.5t73.5 -165.5q0 -55 -13.5 -91t-35 -58.5 t-49 -32t-56.5 -9.5q-47 0 -78.5 25t-31.5 78q0 10 4 34.5t20 44.5h74q16 37 16 60q0 47 -40 69.5t-89 22.5q-86 0 -143.5 -34t-95 -90t-58 -132t-28.5 -162l-23 -200h358l-14 -86h-352l-17 -127q-10 -66 -21 -121.5t-26 -110.5q74 -20 139.5 -49t122 -55.5t101.5 -45 t74 -18.5q41 0 67.5 39t48.5 143l72 -4q-23 -176 -88.5 -256t-147.5 -80q-49 0 -104 16.5t-111.5 43t-110.5 58.5t-102 61q-35 -76 -97 -117t-144 -41t-120 41t-38 98zM18 152q0 -41 20.5 -54.5t53.5 -13.5q43 0 83 25.5t65 78.5q-37 16 -72 26.5t-68 10.5q-31 0 -56.5 -18 t-25.5 -55z" />
<glyph unicode="&#xa4;" horiz-adv-x="991" d="M82 188l145 185q-27 41 -36 91t-9 103q0 51 10.5 97.5t38.5 93.5l-147 182l63 64l170 -154q78 57 187 57q53 0 94 -11t78 -40l182 139l49 -55l-147 -176q25 -41 34 -85t9 -93q0 -115 -53 -205l147 -195l-57 -55l-181 158q-68 -51 -170 -51q-109 0 -176 49l-178 -154z M309 567q0 -47 8.5 -88t29 -71.5t56 -49t91.5 -18.5q49 0 83.5 19.5t57 51t33 74.5t10.5 93q0 98 -42 164.5t-142 66.5q-51 0 -87 -19.5t-57.5 -53.5t-31 -77t-9.5 -92z" />
<glyph unicode="&#xa5;" horiz-adv-x="1101" d="M113 438l16 88h291l26 170h-294l16 88h252l-182 553l-117 15l14 82h516l-14 -82l-170 -15l156 -522h8l323 522l-149 15l14 82h381l-14 -82l-121 -15l-358 -553h256l-17 -88h-295l-24 -170h295l-17 -88h-295l-51 -344l152 -14l-11 -80h-520l15 80l157 14l54 344h-293z" />
<glyph unicode="&#xa6;" horiz-adv-x="602" d="M92 -260l150 895h116l-151 -895h-115zM279 844l131 784h116l-131 -784h-116z" />
<glyph unicode="&#xa7;" horiz-adv-x="1067" d="M23 -121q0 76 35.5 122t105.5 46q45 0 73.5 -25.5t28.5 -72.5q0 -39 -20 -76h-62q-8 -18 -8 -39q0 -37 35 -54.5t82 -17.5q121 0 179 58.5t58 150.5q0 66 -31.5 117t-78.5 96t-101.5 88t-101.5 95.5t-79 117t-32 152.5q0 117 59.5 212t162.5 152q-4 18 -6.5 40t-2.5 44 q0 86 31 156t84 117t125 72.5t152 25.5q51 0 100 -11t86 -36t59.5 -63.5t22.5 -94.5q0 -76 -36 -122t-103 -46q-45 0 -75 26t-30 73q0 18 6.5 38.5t14.5 36.5h61q8 18 8 39q0 35 -32.5 53.5t-83.5 18.5q-121 0 -179.5 -56.5t-58.5 -142.5q0 -70 32 -123t79 -98t101 -89 t101 -96t79 -116.5t32 -152.5q0 -117 -59.5 -213.5t-161.5 -151.5q4 -20 6 -41.5t2 -44.5q0 -90 -32 -158.5t-86 -114.5t-124.5 -71t-148.5 -25q-51 0 -99.5 11.5t-86 36t-60 63.5t-22.5 94zM262 733q0 -86 45 -148.5t107.5 -118.5t127 -115.5t103.5 -141.5q41 29 67.5 77 t26.5 111q0 86 -46 148.5t-108.5 119t-127 116t-103.5 139.5q-39 -29 -65.5 -75t-26.5 -112z" />
<glyph unicode="&#xa8;" horiz-adv-x="937" d="M387 1290q0 59 37 99.5t90 40.5q43 0 68.5 -20.5t25.5 -68.5q0 -53 -35.5 -93t-93.5 -40q-51 0 -71.5 23.5t-20.5 58.5zM764 1290q0 59 38 99.5t91 40.5q41 0 67.5 -20.5t26.5 -68.5q0 -53 -37 -93t-94 -40q-51 0 -71.5 23.5t-20.5 58.5z" />
<glyph unicode="&#xa9;" horiz-adv-x="1472" d="M80 627q0 160 50 284.5t136 211.5t202 133.5t249 46.5q147 0 264 -46.5t198 -130.5t125 -204t44 -267q0 -152 -46.5 -276.5t-130.5 -213.5t-200.5 -138.5t-257.5 -49.5q-158 0 -277 50.5t-197.5 137.5t-118.5 205.5t-40 256.5zM178 629q0 -131 37 -237.5t106.5 -181.5 t169 -116t226.5 -41q125 0 224 42t169 119t106.5 186.5t36.5 242.5q0 139 -39.5 247.5t-110.5 183.5t-170 114t-216 39t-215.5 -41t-170 -119t-112.5 -188.5t-41 -249.5zM375 651q0 98 29.5 173t80 125t115 77t133.5 27q66 0 106 -20.5t56 -20.5q10 0 15 10t12 20h39l6 -243 h-47q-23 106 -65 146t-114 40q-211 0 -211 -334q0 -156 52.5 -247t162.5 -91q74 0 118 44t67 149h45l-6 -244h-41q-6 10 -11.5 20.5t-15.5 10.5q-16 0 -58 -21.5t-118 -21.5q-72 0 -136.5 23.5t-111.5 72.5t-74.5 125t-27.5 180z" />
<glyph unicode="&#xaa;" horiz-adv-x="811" d="M82 825q0 78 23.5 163t68.5 155.5t111.5 117t152.5 46.5q125 0 166 -113l27 96q35 0 77 2t76 6q-33 -135 -62.5 -263t-45.5 -228q-6 -39 -7 -61.5t-1 -26.5q0 -45 41 -45q20 0 35.5 12t31.5 31l39 -37q-23 -35 -63.5 -65.5t-94.5 -30.5q-66 0 -95.5 31.5t-29.5 84.5 q0 31 11 76q-2 0 -3 1t-3 1q-16 -37 -39 -71.5t-55.5 -62.5t-72.5 -44t-89 -16q-98 0 -148.5 62.5t-50.5 178.5zM248 821q0 -70 20.5 -106.5t73.5 -36.5q49 0 90 44t70.5 108.5t46 136t16.5 125.5q0 141 -106 141q-57 0 -97 -42t-66 -105.5t-37 -135t-11 -129.5z" />
<glyph unicode="&#xab;" horiz-adv-x="923" d="M45 459q0 45 31 67l391 299l43 -59l-281 -307l177 -309l-60 -50l-260 279q-25 27 -33 45t-8 35zM385 459q0 45 31 67l391 299l43 -59l-281 -307l176 -309l-59 -50l-260 279q-25 27 -33 45t-8 35z" />
<glyph unicode="&#xac;" d="M92 565l19 119h874l-57 -352h-121l39 233h-754z" />
<glyph unicode="&#xad;" horiz-adv-x="624" d="M82 512l24 143h439l-25 -143h-438z" />
<glyph unicode="&#xae;" horiz-adv-x="856" d="M113 969q0 90 28.5 161.5t77.5 122t115.5 77t142.5 26.5q82 0 149.5 -26.5t113.5 -76t72 -118t26 -152.5q0 -86 -27 -156.5t-74 -122t-114.5 -79t-147.5 -27.5q-90 0 -157.5 28.5t-113.5 78t-68.5 117t-22.5 147.5zM193 971q0 -141 73.5 -222t210.5 -81q133 0 208 84 t75 225q0 150 -80 230.5t-203 80.5q-129 0 -206.5 -85t-77.5 -232zM315 793v32l41 6v314l-41 8v33h140q66 0 112.5 -16.5t46.5 -75.5q0 -51 -31.5 -72t-82.5 -25q55 -8 76.5 -27.5t21.5 -70.5v-39q0 -16 4 -23.5t21 -7.5q14 0 18 11.5t8 38.5l29 -5q-4 -33 -16.5 -60.5 t-59.5 -27.5q-78 0 -78 68v68q0 27 -13 40t-54 13h-25v-144l53 -6v-32h-170zM432 1014q55 0 80 14t25 53q0 41 -20.5 52.5t-74.5 11.5h-10v-131z" />
<glyph unicode="&#xaf;" horiz-adv-x="937" d="M414 1253l26 133h523l-25 -133h-524z" />
<glyph unicode="&#xb0;" horiz-adv-x="573" d="M125 1204q0 43 13.5 81t40 66.5t65.5 46t90 17.5q96 0 145 -55t49 -146q0 -88 -52 -151.5t-150 -63.5q-104 0 -152.5 58.5t-48.5 146.5zM201 1206q0 -63 29.5 -104t97.5 -41q63 0 95 42t32 107q0 66 -33 105t-94 39q-63 0 -95 -41t-32 -107z" />
<glyph unicode="&#xb1;" d="M0 0l20 119h873l-19 -119h-874zM94 565l21 119h366l62 358h125l-62 -358h381l-18 -119h-381l-60 -356h-125l60 356h-369z" />
<glyph unicode="&#xb2;" horiz-adv-x="636" d="M72 819l14 88l162 160q80 78 131 137.5t80.5 108.5t41 92t11.5 86q0 125 -100 125q-57 0 -84 -26.5t-27 -55.5q0 -10 2 -16h43q0 -57 -18.5 -91t-73.5 -34q-39 0 -59.5 22.5t-20.5 59.5q0 47 23.5 84.5t62.5 63.5t90 40t107 14q125 0 178 -57t53 -133q0 -59 -23.5 -110.5 t-68.5 -101.5t-112.5 -106.5t-155.5 -126.5l-121 -96v-2h192q84 0 117 26.5t55 90.5h60l-47 -242h-512z" />
<glyph unicode="&#xb3;" horiz-adv-x="630" d="M76 946q0 53 28.5 85t77.5 32q41 0 58.5 -19.5t17.5 -48.5t-12 -55h-49q-10 -16 -11 -31q0 -16 19.5 -28.5t66.5 -12.5q94 0 154.5 60.5t60.5 175.5q0 70 -26.5 100.5t-71.5 30.5q-35 0 -68.5 -10.5t-66.5 -20.5l-6 58q51 18 98 39.5t83 51t56.5 68.5t20.5 90 q0 47 -24.5 76t-75.5 29q-43 0 -71 -18.5t-28 -41.5q0 -10 2 -16h39q10 -49 -12.5 -83t-79.5 -34q-35 0 -53.5 21.5t-18.5 54.5q0 43 21.5 76t58.5 55.5t87 34.5t108 12q106 0 157.5 -44t51.5 -111q0 -45 -17.5 -79t-51.5 -61.5t-82 -50t-109 -45.5q0 -2 -1 -3t-1 -3 q35 8 75 8q47 0 80 -15.5t54.5 -40t30.5 -57t9 -65.5q0 -72 -33.5 -127t-87 -95t-122 -60.5t-138.5 -20.5q-94 0 -146 35t-52 104z" />
<glyph unicode="&#xb4;" horiz-adv-x="937" d="M506 1151l186 365l82 18q35 6 61.5 -8.5t26.5 -48.5q0 -29 -14 -51.5t-39 -47.5l-256 -260z" />
<glyph unicode="&#xb5;" horiz-adv-x="1140" d="M10 -418l230 1426l186 18l-111 -702q-6 -37 -6 -74t12.5 -67.5t40 -49t74.5 -18.5q43 0 87 21.5t80 60.5t62.5 92t36.5 114l97 605l186 18l-133 -840q-6 -43 -6 -65q0 -49 43 -49q31 0 61 12l8 -70q-27 -14 -63.5 -24t-81.5 -10q-66 0 -103.5 30.5t-37.5 89.5q0 27 10 68 l-12 4q-23 -39 -48.5 -75t-56 -62.5t-69.5 -42t-86 -15.5q-29 0 -56.5 7.5t-50 25t-39 48t-22.5 77.5l-13 -2q0 -59 -1 -129t-3 -137.5t-4 -124.5t-2 -92q0 -53 -41 -74.5t-86 -11.5z" />
<glyph unicode="&#xb6;" horiz-adv-x="1202" d="M117 -59q0 88 44 138t122 50q49 0 88 -35t39 -112v-25.5t-4 -30.5l-93 -16q-8 -18 -8 -41q0 -41 43 -67.5t115 -26.5q133 0 216 107.5t114 289.5l194 1159h-129l-137 -803h-135q-90 0 -167 23.5t-133.5 72t-88 124t-31.5 180.5q0 141 45 237.5t125 155.5t189.5 86 t238.5 27h485l-16 -91l-127 -14l-184 -1114q-25 -147 -67 -247.5t-101.5 -163t-136 -90t-168.5 -27.5q-72 0 -133.5 18.5t-105.5 51t-68.5 79.5t-24.5 105z" />
<glyph unicode="&#xb7;" horiz-adv-x="499" d="M106 625q0 82 51 129t119 47q53 0 87 -29t34 -86q0 -82 -51 -131t-121 -49q-68 0 -93.5 38t-25.5 81z" />
<glyph unicode="&#xb8;" horiz-adv-x="937" d="M209 -340q0 31 19.5 55.5t54.5 24.5q27 0 43 -16.5t18 -42.5l-43 -29q-4 -43 64 -43q53 0 85.5 37t32.5 98q0 37 -19.5 62.5t-62.5 25.5q-18 0 -39.5 -3t-35.5 -7l-7 43l123 162h78l-98 -133q10 4 25.5 5t23.5 1q72 0 107.5 -43t35.5 -103q0 -51 -21.5 -89t-57 -63.5 t-80.5 -39t-95 -13.5q-78 0 -114.5 35t-36.5 76z" />
<glyph unicode="&#xb9;" horiz-adv-x="540" d="M109 819l10 70l137 14l98 592q-16 -4 -40.5 -5t-50 1t-48 5t-35.5 7l17 66q92 -8 153.5 19.5t102.5 76.5h88l-129 -764l114 -10l-12 -72h-405z" />
<glyph unicode="&#xba;" horiz-adv-x="757" d="M82 846q0 84 26.5 166t77 147.5t125 106.5t172.5 41q135 0 194.5 -73t59.5 -198q0 -82 -25.5 -162.5t-75.5 -145t-124 -104.5t-170 -40q-135 0 -197.5 70.5t-62.5 191.5zM248 831q0 -72 21.5 -112.5t80.5 -40.5q45 0 85 29.5t70 82t46 121t16 148.5q0 98 -27.5 135 t-78.5 37q-59 0 -99 -40t-66 -100.5t-37 -130t-11 -129.5z" />
<glyph unicode="&#xbb;" horiz-adv-x="925" d="M16 160l281 307l-174 309l57 49l262 -278q23 -27 31 -45.5t8 -34.5q0 -45 -30 -68l-392 -299zM358 160l281 307l-174 309l57 49l262 -278q23 -27 31 -45.5t8 -34.5q0 -45 -30 -68l-392 -299z" />
<glyph unicode="&#xbc;" horiz-adv-x="1708" d="M117 598l10 70l137 14l98 592q-16 -4 -40.5 -5t-50 1t-48 5t-35.5 7l17 66q92 -8 153.5 19.5t102.5 76.5h88l-129 -764l115 -10l-13 -72h-405zM262 0l1053 1434h117l-1051 -1434h-119zM852 225l18 94l428 527h146l-90 -527h84l22 84h66l-45 -247h-66l4 69h-86l-24 -143 l88 -10l-13 -72h-370l12 72l125 10l25 143h-324zM952 319h242l63 379h-6z" />
<glyph unicode="&#xbd;" horiz-adv-x="1708" d="M115 598l10 70l137 14l98 592q-16 -4 -40.5 -5t-50 1t-48 5t-35.5 7l17 66q92 -8 153.5 19.5t102.5 76.5h88l-129 -764l114 -10l-12 -72h-405zM242 0l1052 1434h117l-1051 -1434h-118zM932 0l14 88l162 160q80 78 131 137t81 108.5t41 92.5t11 86q0 125 -100 125 q-57 0 -84 -27t-27 -55q0 -10 2 -17h43q0 -57 -18.5 -91t-73.5 -34q-39 0 -59.5 22.5t-20.5 59.5q0 47 23.5 85t62.5 63.5t90.5 40t106.5 14.5q125 0 178 -57.5t53 -132.5q0 -59 -23.5 -110.5t-68.5 -101.5t-112.5 -106.5t-155.5 -126.5l-121 -96v-2h193q84 0 116.5 26.5 t55.5 90.5h59l-47 -242h-512z" />
<glyph unicode="&#xbe;" horiz-adv-x="1708" d="M98 725q0 53 29 85t78 32q41 0 58.5 -19.5t17.5 -48.5t-13 -55h-49q-10 -16 -10 -31q0 -16 19.5 -28.5t66.5 -12.5q94 0 154.5 60.5t60.5 175.5q0 70 -26.5 100.5t-71.5 30.5q-35 0 -69 -10.5t-67 -20.5l-6 57q51 18 98.5 40t83 51.5t56 68.5t20.5 90q0 47 -24.5 76 t-75.5 29q-43 0 -70.5 -18.5t-27.5 -41.5q0 -10 2 -16h39q10 -49 -12.5 -83t-79.5 -34q-35 0 -53.5 21.5t-18.5 54.5q0 43 21.5 75.5t58.5 55.5t87 35t107 12q106 0 157.5 -44t51.5 -112q0 -45 -17.5 -78.5t-51 -61t-81.5 -50.5t-110 -45q0 -2 -1 -3t-1 -3q35 8 76 8 q47 0 79.5 -15.5t54 -40t31 -57t9.5 -65.5q0 -72 -34 -127t-87 -95t-121.5 -60.5t-138.5 -20.5q-94 0 -146.5 34.5t-52.5 104.5zM299 0l1053 1434h116l-1050 -1434h-119zM889 225l18 94l428 527h146l-90 -527h84l22 84h66l-45 -247h-66l4 69h-86l-24 -143l88 -10l-13 -72 h-370l12 72l125 10l24 143h-323zM989 319h242l63 379h-6z" />
<glyph unicode="&#xbf;" horiz-adv-x="935" d="M-6 -168q0 100 43 161.5t108.5 102.5t140 67.5t140.5 58.5t109 75t43 115q0 78 -41 108.5t-101 30.5q-82 0 -130 -53.5t-70 -118.5l-89 24q14 45 39 88.5t62 76t88 52t117 19.5q125 0 195.5 -64.5t70.5 -173.5q0 -100 -42 -160.5t-104.5 -100.5t-136.5 -66.5t-136 -58 t-104 -75.5t-42 -118q0 -82 52 -127t134 -45q86 0 135 31.5t49 80.5q0 14 -2 21h-57q-6 20 -6 43q0 53 29.5 89t89.5 36q57 0 85.5 -34t28.5 -83q0 -70 -34.5 -121t-89 -85t-119 -50t-123.5 -16q-80 0 -142.5 21.5t-104.5 58t-63.5 86t-21.5 104.5zM426 883q0 72 45 114.5 t104 42.5t81 -32.5t22 -69.5q0 -72 -43 -113t-103 -41q-47 0 -76.5 25t-29.5 74z" />
<glyph unicode="&#xc0;" horiz-adv-x="1210" d="M-137 0l14 80l129 16l676 1350h100l201 -1350l133 -16l-14 -80h-514l14 80l154 16l-43 346h-428l-164 -346l143 -16l-14 -80h-387zM340 553h360l-69 575h-6zM516 1753q0 33 24.5 54.5t57.5 29.5l55 12l250 -303l-39 -39l-284 164q-29 16 -46.5 32.5t-17.5 49.5z" />
<glyph unicode="&#xc1;" horiz-adv-x="1210" d="M-137 0l14 80l129 16l676 1350h100l201 -1350l133 -16l-14 -80h-514l14 80l154 16l-43 346h-428l-164 -346l143 -16l-14 -80h-387zM340 553h360l-69 575h-6zM578 1554l311 301l69 -22q55 -18 56 -66q0 -39 -28 -63.5t-62 -40.5l-318 -154z" />
<glyph unicode="&#xc2;" horiz-adv-x="1210" d="M-137 0l14 80l129 16l676 1350h100l201 -1350l133 -16l-14 -80h-514l14 80l154 16l-43 346h-428l-164 -346l143 -16l-14 -80h-387zM340 553h360l-69 575h-6zM438 1563l289 264q10 4 26.5 10t39.5 6q29 0 45 -16.5t36 -44.5l160 -228l-43 -38l-223 170l-301 -177z" />
<glyph unicode="&#xc3;" horiz-adv-x="1210" d="M-137 0l14 80l129 16l676 1350h100l201 -1350l133 -16l-14 -80h-514l14 80l154 16l-43 346h-428l-164 -346l143 -16l-14 -80h-387zM340 553h360l-69 575h-6zM434 1554q43 94 97.5 146.5t140.5 52.5q53 0 84.5 -14.5t70.5 -32.5q29 -12 54.5 -21.5t54.5 -9.5 q35 0 58.5 17.5t52.5 70.5l51 -16q-47 -113 -109 -157t-123 -44q-51 0 -87 13.5t-77 33.5q-31 16 -55 24.5t-53 8.5q-25 0 -50.5 -17.5t-56.5 -72.5z" />
<glyph unicode="&#xc4;" horiz-adv-x="1210" d="M-137 0l14 80l129 16l676 1350h100l201 -1350l133 -16l-14 -80h-514l14 80l154 16l-43 346h-428l-164 -346l143 -16l-14 -80h-387zM340 553h360l-69 575h-6zM467 1642q0 59 39 97.5t90 38.5q92 0 92 -84q0 -59 -36 -98.5t-93 -39.5q-51 0 -71.5 26t-20.5 60zM846 1642 q0 59 38 97.5t91 38.5q43 0 67.5 -21.5t24.5 -62.5q0 -59 -37 -98.5t-92 -39.5q-53 0 -72.5 26t-19.5 60z" />
<glyph unicode="&#xc5;" horiz-adv-x="1210" d="M-137 0l14 80l129 16l680 1358q-66 10 -95.5 53.5t-29.5 102.5q0 100 66.5 165.5t171.5 65.5q84 0 123 -46t39 -114q0 -92 -49.5 -152.5t-131.5 -74.5l203 -1358l133 -16l-14 -80h-514l14 80l154 16l-43 346h-428l-164 -346l143 -16l-14 -80h-387zM340 553h360l-69 575 h-6zM668 1624q0 -33 16 -60.5t64 -27.5q57 0 82.5 42t25.5 89q0 41 -17.5 65.5t-58.5 24.5q-47 0 -79.5 -37t-32.5 -96z" />
<glyph unicode="&#xc6;" horiz-adv-x="1859" d="M-121 0l17 80l133 16l811 1241l-144 17l17 80h1120l-51 -385h-86q-4 88 -17.5 145t-46.5 91t-89 46t-146 12h-156l-100 -604h88q55 0 94 12.5t67.5 42t50 75.5t44.5 114h71l-102 -606h-76q2 80 -3 131t-24.5 79.5t-56.5 39t-100 10.5h-70l-92 -543h156q106 0 178 17.5 t123 60.5t87 112.5t71 174.5h84l-91 -459h-968l12 80l145 16l91 541h-408l-344 -541l151 -16l-16 -80h-424zM582 741h356l98 598h-67z" />
<glyph unicode="&#xc7;" horiz-adv-x="1183" d="M53 535q0 150 47 312.5t140.5 297.5t230.5 223t320 88q55 0 101 -9t81 -21.5t60.5 -21.5t39.5 -9q23 0 33 11t22 32h72l-59 -428h-82q-4 98 -23.5 164.5t-54.5 106.5t-86 57.5t-117 17.5q-96 0 -171 -39t-131 -105.5t-95 -151.5t-63.5 -178.5t-35 -187.5t-10.5 -176 q0 -205 77 -317.5t237 -112.5q143 0 247.5 85t172.5 284l92 -27q-37 -129 -96.5 -213t-128 -134t-140 -73.5t-133.5 -29.5l-63 -86q10 4 25.5 5t23.5 1q72 0 107.5 -43t35.5 -103q0 -51 -21.5 -89t-57.5 -63.5t-81 -39t-94 -13.5q-78 0 -114.5 35t-36.5 76q0 31 19 55.5 t54 24.5q27 0 43.5 -16.5t18.5 -42.5l-43 -29q-4 -43 63 -43q53 0 86 37t33 98q0 37 -19.5 62.5t-62.5 25.5q-18 0 -39.5 -3t-36.5 -7l-6 43l86 112q-221 10 -344 147.5t-123 410.5z" />
<glyph unicode="&#xc8;" horiz-adv-x="1159" d="M-29 0l13 80l145 16l207 1241l-139 17l14 80h922l-52 -385h-86q-4 94 -18 151t-49 89t-91.5 43t-142.5 11h-153l-95 -563h93q55 0 93 12.5t65.5 42t49 75.5t44.5 114h71l-102 -606h-76q2 80 -2 131t-24.5 79.5t-57.5 39t-98 10.5h-72l-98 -584h155q104 0 177 17.5 t124.5 60.5t88 112.5t69.5 174.5h84l-90 -459h-969zM510 1753q0 33 24.5 54.5t57.5 29.5l55 12l250 -303l-39 -39l-285 164q-29 16 -46 32.5t-17 49.5z" />
<glyph unicode="&#xc9;" horiz-adv-x="1159" d="M-29 0l13 80l145 16l207 1241l-139 17l14 80h922l-52 -385h-86q-4 94 -18 151t-49 89t-91.5 43t-142.5 11h-153l-95 -563h93q55 0 93 12.5t65.5 42t49 75.5t44.5 114h71l-102 -606h-76q2 80 -2 131t-24.5 79.5t-57.5 39t-98 10.5h-72l-98 -584h155q104 0 177 17.5 t124.5 60.5t88 112.5t69.5 174.5h84l-90 -459h-969zM524 1554l312 301l69 -22q55 -18 56 -66q0 -39 -28 -63.5t-63 -40.5l-317 -154z" />
<glyph unicode="&#xca;" horiz-adv-x="1159" d="M-29 0l13 80l145 16l207 1241l-139 17l14 80h922l-52 -385h-86q-4 94 -18 151t-49 89t-91.5 43t-142.5 11h-153l-95 -563h93q55 0 93 12.5t65.5 42t49 75.5t44.5 114h71l-102 -606h-76q2 80 -2 131t-24.5 79.5t-57.5 39t-98 10.5h-72l-98 -584h155q104 0 177 17.5 t124.5 60.5t88 112.5t69.5 174.5h84l-90 -459h-969zM403 1563l289 264q10 4 26.5 10t39.5 6q29 0 45 -16.5t37 -44.5l159 -228l-43 -38l-223 170l-301 -177z" />
<glyph unicode="&#xcb;" horiz-adv-x="1159" d="M-29 0l13 80l145 16l207 1241l-139 17l14 80h922l-52 -385h-86q-4 94 -18 151t-49 89t-91.5 43t-142.5 11h-153l-95 -563h93q55 0 93 12.5t65.5 42t49 75.5t44.5 114h71l-102 -606h-76q2 80 -2 131t-24.5 79.5t-57.5 39t-98 10.5h-72l-98 -584h155q104 0 177 17.5 t124.5 60.5t88 112.5t69.5 174.5h84l-90 -459h-969zM430 1642q0 59 39 97.5t90 38.5q92 0 92 -84q0 -59 -35.5 -98.5t-93.5 -39.5q-51 0 -71.5 26t-20.5 60zM809 1642q0 59 38 97.5t91 38.5q43 0 67.5 -21.5t24.5 -62.5q0 -59 -37 -98.5t-92 -39.5q-53 0 -72.5 26t-19.5 60z " />
<glyph unicode="&#xcc;" horiz-adv-x="677" d="M-27 0l13 80l145 14l207 1243l-139 15l16 82h485l-14 -80l-143 -15l-207 -1243l139 -14l-14 -82h-488zM252 1753q0 33 24.5 54.5t57.5 29.5l55 12l250 -303l-39 -39l-285 164q-29 16 -46 32.5t-17 49.5z" />
<glyph unicode="&#xcd;" horiz-adv-x="677" d="M-27 0l13 80l145 14l207 1243l-139 15l16 82h485l-14 -80l-143 -15l-207 -1243l139 -14l-14 -82h-488zM279 1554l311 301l69 -22q55 -18 56 -66q0 -39 -28 -63.5t-62 -40.5l-318 -154z" />
<glyph unicode="&#xce;" horiz-adv-x="677" d="M-27 0l13 80l145 14l207 1243l-139 15l16 82h485l-14 -80l-143 -15l-207 -1243l139 -14l-14 -82h-488zM170 1563l289 264q10 4 26.5 10t38.5 6q29 0 45.5 -16.5t36.5 -44.5l160 -228l-43 -38l-223 170l-301 -177z" />
<glyph unicode="&#xcf;" horiz-adv-x="677" d="M-27 0l13 80l145 14l207 1243l-139 15l16 82h485l-14 -80l-143 -15l-207 -1243l139 -14l-14 -82h-488zM197 1642q0 59 39 97.5t90 38.5q92 0 92 -84q0 -59 -36 -98.5t-93 -39.5q-51 0 -71.5 26t-20.5 60zM575 1642q0 59 38.5 97.5t91.5 38.5q43 0 67.5 -21.5t24.5 -62.5 q0 -59 -37 -98.5t-92 -39.5q-53 0 -73 26t-20 60z" />
<glyph unicode="&#xd0;" horiz-adv-x="1357" d="M-14 0l14 82l156 14l96 586h-164l18 100h162l94 557l-151 13l14 82h457q133 0 245.5 -28t193.5 -91.5t126 -167t45 -254.5q0 -197 -58 -360.5t-171 -282.5t-280 -184.5t-382 -65.5h-415zM358 92h78q166 0 287 69.5t199.5 183.5t116.5 261.5t38 300.5q0 125 -30.5 209 t-89 133t-145.5 69.5t-200 20.5h-45l-94 -557h342l-18 -100h-340z" />
<glyph unicode="&#xd1;" horiz-adv-x="1370" d="M-6 0l16 82l117 12l209 1243l-117 15l14 82h394l356 -1028h6l156 931l-117 15l16 82h345l-17 -82l-121 -15l-225 -1337h-106l-476 1323h-8l-198 -1229l133 -12l-17 -82h-360zM512 1554q43 94 97.5 146.5t140.5 52.5q53 0 84.5 -14.5t70.5 -32.5q29 -12 54.5 -21.5 t54.5 -9.5q35 0 58.5 17.5t51.5 70.5l52 -16q-47 -113 -109 -157t-123 -44q-51 0 -87 13.5t-77 33.5q-31 16 -55.5 24.5t-52.5 8.5q-25 0 -50.5 -17.5t-56.5 -72.5z" />
<glyph unicode="&#xd2;" horiz-adv-x="1304" d="M51 528q0 102 20.5 211t61.5 211.5t102.5 194.5t142.5 161.5t182.5 109.5t223.5 40q223 0 341 -138t118 -405q0 -154 -43 -318.5t-132 -301.5t-224 -226.5t-322 -89.5q-225 0 -348 137.5t-123 413.5zM264 492q0 -88 15.5 -164t48 -131.5t86 -86t131.5 -30.5 q96 0 169.5 45t127 118.5t90.5 168t58.5 194t30.5 194.5t9 171q0 86 -13 156.5t-45 120.5t-84 79t-128 29q-139 0 -233.5 -85t-153 -214t-84 -280.5t-25.5 -284.5zM571 1753q0 33 25 54.5t57 29.5l56 12l249 -303l-38 -39l-285 164q-29 16 -46.5 32.5t-17.5 49.5z" />
<glyph unicode="&#xd3;" horiz-adv-x="1304" d="M51 528q0 102 20.5 211t61.5 211.5t102.5 194.5t142.5 161.5t182.5 109.5t223.5 40q223 0 341 -138t118 -405q0 -154 -43 -318.5t-132 -301.5t-224 -226.5t-322 -89.5q-225 0 -348 137.5t-123 413.5zM264 492q0 -88 15.5 -164t48 -131.5t86 -86t131.5 -30.5 q96 0 169.5 45t127 118.5t90.5 168t58.5 194t30.5 194.5t9 171q0 86 -13 156.5t-45 120.5t-84 79t-128 29q-139 0 -233.5 -85t-153 -214t-84 -280.5t-25.5 -284.5zM616 1554l312 301l69 -22q55 -18 56 -66q0 -39 -28 -63.5t-62 -40.5l-318 -154z" />
<glyph unicode="&#xd4;" horiz-adv-x="1304" d="M51 528q0 102 20.5 211t61.5 211.5t102.5 194.5t142.5 161.5t182.5 109.5t223.5 40q223 0 341 -138t118 -405q0 -154 -43 -318.5t-132 -301.5t-224 -226.5t-322 -89.5q-225 0 -348 137.5t-123 413.5zM264 492q0 -88 15.5 -164t48 -131.5t86 -86t131.5 -30.5 q96 0 169.5 45t127 118.5t90.5 168t58.5 194t30.5 194.5t9 171q0 86 -13 156.5t-45 120.5t-84 79t-128 29q-139 0 -233.5 -85t-153 -214t-84 -280.5t-25.5 -284.5zM494 1563l288 264q10 4 26.5 10t39.5 6q29 0 45 -16.5t37 -44.5l160 -228l-43 -38l-224 170l-301 -177z" />
<glyph unicode="&#xd5;" horiz-adv-x="1304" d="M51 528q0 102 20.5 211t61.5 211.5t102.5 194.5t142.5 161.5t182.5 109.5t223.5 40q223 0 341 -138t118 -405q0 -154 -43 -318.5t-132 -301.5t-224 -226.5t-322 -89.5q-225 0 -348 137.5t-123 413.5zM264 492q0 -88 15.5 -164t48 -131.5t86 -86t131.5 -30.5 q96 0 169.5 45t127 118.5t90.5 168t58.5 194t30.5 194.5t9 171q0 86 -13 156.5t-45 120.5t-84 79t-128 29q-139 0 -233.5 -85t-153 -214t-84 -280.5t-25.5 -284.5zM487 1554q43 94 97.5 146.5t140.5 52.5q53 0 85 -14.5t71 -32.5q29 -12 54.5 -21.5t53.5 -9.5 q35 0 58.5 17.5t52.5 70.5l51 -16q-47 -113 -108.5 -157t-122.5 -44q-51 0 -87 13.5t-77 33.5q-31 16 -55.5 24.5t-53.5 8.5q-25 0 -50.5 -17.5t-55.5 -72.5z" />
<glyph unicode="&#xd6;" horiz-adv-x="1304" d="M51 528q0 102 20.5 211t61.5 211.5t102.5 194.5t142.5 161.5t182.5 109.5t223.5 40q223 0 341 -138t118 -405q0 -154 -43 -318.5t-132 -301.5t-224 -226.5t-322 -89.5q-225 0 -348 137.5t-123 413.5zM264 492q0 -88 15.5 -164t48 -131.5t86 -86t131.5 -30.5 q96 0 169.5 45t127 118.5t90.5 168t58.5 194t30.5 194.5t9 171q0 86 -13 156.5t-45 120.5t-84 79t-128 29q-139 0 -233.5 -85t-153 -214t-84 -280.5t-25.5 -284.5zM520 1642q0 59 39 97.5t90 38.5q92 0 92 -84q0 -59 -35.5 -98.5t-93.5 -39.5q-51 0 -71.5 26t-20.5 60z M899 1642q0 59 38 97.5t91 38.5q43 0 67.5 -21.5t24.5 -62.5q0 -59 -36.5 -98.5t-92.5 -39.5q-53 0 -72.5 26t-19.5 60z" />
<glyph unicode="&#xd7;" d="M131 248l322 289l-217 278l100 84l211 -276l307 280l68 -88l-312 -278l213 -281l-96 -88l-213 283l-315 -289q-20 23 -36 43t-32 43z" />
<glyph unicode="&#xd8;" horiz-adv-x="1304" d="M51 528q0 102 20.5 211t61.5 211.5t102.5 194.5t142.5 161.5t182.5 109.5t223.5 40q41 0 80 -5t74 -15l78 155l98 -45l-78 -153q207 -129 207 -480q0 -154 -43 -318.5t-132 -301.5t-224 -226.5t-322 -89.5q-51 0 -96 7.5t-86 19.5l-82 -164l-94 47l82 164 q-195 131 -195 477zM264 492q0 -86 13.5 -159t44.5 -126l563 1122q-27 12 -57.5 19.5t-67.5 7.5q-139 0 -233.5 -85t-153 -214t-84 -280.5t-25.5 -284.5zM399 121q60 -41 146 -41q96 0 169.5 45t127 118.5t90.5 168t58.5 194t30.5 194.5t9 171q0 88 -14.5 159.5t-48.5 122.5 z" />
<glyph unicode="&#xd9;" horiz-adv-x="1339" d="M156 303q0 66 8 124t20 130l133 782l-133 13l17 82h473l-15 -82l-139 -13q-35 -219 -72.5 -435t-70.5 -437q-6 -41 -9 -73t-3 -66q0 -131 64 -187.5t179 -56.5q160 0 246 90t117 283l145 880l-133 15l16 82h375l-16 -82l-129 -15l-148 -874q-18 -115 -56 -204 t-100.5 -152.5t-152.5 -96.5t-215 -33q-90 0 -164 16.5t-127 55.5t-81.5 101.5t-28.5 152.5zM594 1753q0 33 24.5 54.5t57.5 29.5l55 12l250 -303l-39 -39l-285 164q-29 16 -46 32.5t-17 49.5z" />
<glyph unicode="&#xda;" horiz-adv-x="1339" d="M156 303q0 66 8 124t20 130l133 782l-133 13l17 82h473l-15 -82l-139 -13q-35 -219 -72.5 -435t-70.5 -437q-6 -41 -9 -73t-3 -66q0 -131 64 -187.5t179 -56.5q160 0 246 90t117 283l145 880l-133 15l16 82h375l-16 -82l-129 -15l-148 -874q-18 -115 -56 -204 t-100.5 -152.5t-152.5 -96.5t-215 -33q-90 0 -164 16.5t-127 55.5t-81.5 101.5t-28.5 152.5zM643 1554l311 301l70 -22q55 -18 55 -66q0 -39 -27.5 -63.5t-62.5 -40.5l-317 -154z" />
<glyph unicode="&#xdb;" horiz-adv-x="1339" d="M156 303q0 66 8 124t20 130l133 782l-133 13l17 82h473l-15 -82l-139 -13q-35 -219 -72.5 -435t-70.5 -437q-6 -41 -9 -73t-3 -66q0 -131 64 -187.5t179 -56.5q160 0 246 90t117 283l145 880l-133 15l16 82h375l-16 -82l-129 -15l-148 -874q-18 -115 -56 -204 t-100.5 -152.5t-152.5 -96.5t-215 -33q-90 0 -164 16.5t-127 55.5t-81.5 101.5t-28.5 152.5zM518 1563l289 264q10 4 26.5 10t38.5 6q29 0 45.5 -16.5t36.5 -44.5l160 -228l-43 -38l-223 170l-301 -177z" />
<glyph unicode="&#xdc;" horiz-adv-x="1339" d="M156 303q0 66 8 124t20 130l133 782l-133 13l17 82h473l-15 -82l-139 -13q-35 -219 -72.5 -435t-70.5 -437q-6 -41 -9 -73t-3 -66q0 -131 64 -187.5t179 -56.5q160 0 246 90t117 283l145 880l-133 15l16 82h375l-16 -82l-129 -15l-148 -874q-18 -115 -56 -204 t-100.5 -152.5t-152.5 -96.5t-215 -33q-90 0 -164 16.5t-127 55.5t-81.5 101.5t-28.5 152.5zM547 1642q0 59 39 97.5t90 38.5q92 0 92 -84q0 -59 -36 -98.5t-93 -39.5q-51 0 -71.5 26t-20.5 60zM926 1642q0 59 38 97.5t91 38.5q43 0 67.5 -21.5t24.5 -62.5q0 -59 -37 -98.5 t-92 -39.5q-53 0 -72.5 26t-19.5 60z" />
<glyph unicode="&#xdd;" horiz-adv-x="1083" d="M88 1350l14 84h521l-15 -84l-174 -15l170 -553h6l357 553l-142 15l17 84h381l-15 -84l-123 -15l-448 -671l-92 -568l151 -14l-12 -82h-518l16 82l158 14l92 568l-227 671zM541 1554l311 301l70 -22q55 -18 55 -66q0 -39 -27.5 -63.5t-62.5 -40.5l-318 -154z" />
<glyph unicode="&#xde;" horiz-adv-x="1103" d="M-39 0l14 82l154 14l207 1243l-152 15l17 80h549l-15 -80l-194 -15l-29 -172h115q94 0 180 -15t150.5 -54t103.5 -105.5t39 -167.5q0 -137 -53.5 -232t-142.5 -155.5t-205.5 -88t-245.5 -27.5h-82l-37 -226l223 -14l-16 -82h-580zM387 416h64q203 0 314.5 107.5 t111.5 297.5q0 72 -20.5 120t-57.5 78t-89.5 42t-115.5 12h-98z" />
<glyph unicode="&#xdf;" horiz-adv-x="1185" d="M-227 -340q74 27 123 62.5t81.5 83t52 107.5t31.5 136l160 895q25 143 65 260t104.5 201t156.5 130t223 46q51 0 99.5 -12.5t85 -39t59 -65.5t22.5 -90q0 -59 -22.5 -108t-57 -94.5t-73.5 -86.5t-74 -82.5t-57.5 -87t-22.5 -96.5t25.5 -85t63.5 -61.5t82 -54t82 -64.5 t63.5 -91t25.5 -133q0 -72 -23.5 -135.5t-68.5 -111.5t-109.5 -77t-146.5 -29q-78 0 -133 18.5t-91 50.5t-53.5 72t-17.5 83q0 72 35 120t104 48q43 0 71 -25t28 -72q0 -20 -7.5 -43.5t-23.5 -40.5h-57q-10 -20 -11 -38q0 -41 41 -62.5t113 -21.5q78 0 134 49t56 147 q0 57 -25.5 95t-64.5 68t-84 55.5t-84 58t-64.5 79t-25.5 115.5q0 72 25.5 130.5t62.5 107.5t82 93t82 88t62.5 92t25.5 106q0 66 -43 100.5t-135 34.5q-61 0 -107.5 -23.5t-81 -63.5t-56 -95.5t-34.5 -116.5l-217 -1190q-20 -111 -57 -185.5t-90 -121.5t-125 -74t-162 -45z " />
<glyph unicode="&#xe0;" horiz-adv-x="1067" d="M29 328q0 115 31.5 240.5t94 230t153.5 173t212 68.5q86 0 143.5 -39.5t92.5 -130.5l39 146q45 0 85 3t87 9q-43 -199 -85 -403.5t-71 -376.5q-8 -45 -10 -61.5t-2 -34.5q0 -61 61 -62q29 0 51.5 18.5t44.5 47.5l52 -45q-14 -23 -34 -45.5t-45.5 -43t-56 -33t-67.5 -12.5 q-86 0 -124 45.5t-38 112.5q0 33 6 67t15 66l-11 2q-25 -55 -57.5 -107t-77.5 -94t-100.5 -67t-124.5 -25q-129 0 -196.5 90.5t-67.5 260.5zM225 319q0 -96 28.5 -154.5t106.5 -58.5q53 0 100.5 32t86.5 84t68.5 118t51 134.5t32 134t10.5 116.5q0 45 -9.5 85t-30 70.5 t-52 48t-76.5 17.5q-86 0 -146.5 -61.5t-97.5 -153.5t-54.5 -202.5t-17.5 -209.5zM438 1477q0 20 12.5 35.5t31 24.5t40 9t39.5 -8l60 -27l77 -370l-49 -21l-178 273q-12 18 -22.5 38.5t-10.5 45.5z" />
<glyph unicode="&#xe1;" horiz-adv-x="1067" d="M29 328q0 115 31.5 240.5t94 230t153.5 173t212 68.5q86 0 143.5 -39.5t92.5 -130.5l39 146q45 0 85 3t87 9q-43 -199 -85 -403.5t-71 -376.5q-8 -45 -10 -61.5t-2 -34.5q0 -61 61 -62q29 0 51.5 18.5t44.5 47.5l52 -45q-14 -23 -34 -45.5t-45.5 -43t-56 -33t-67.5 -12.5 q-86 0 -124 45.5t-38 112.5q0 33 6 67t15 66l-11 2q-25 -55 -57.5 -107t-77.5 -94t-100.5 -67t-124.5 -25q-129 0 -196.5 90.5t-67.5 260.5zM225 319q0 -96 28.5 -154.5t106.5 -58.5q53 0 100.5 32t86.5 84t68.5 118t51 134.5t32 134t10.5 116.5q0 45 -9.5 85t-30 70.5 t-52 48t-76.5 17.5q-86 0 -146.5 -61.5t-97.5 -153.5t-54.5 -202.5t-17.5 -209.5zM537 1151l186 365l82 18q35 6 61.5 -8.5t26.5 -48.5q0 -29 -14.5 -51.5t-38.5 -47.5l-256 -260z" />
<glyph unicode="&#xe2;" horiz-adv-x="1067" d="M29 328q0 115 31.5 240.5t94 230t153.5 173t212 68.5q86 0 143.5 -39.5t92.5 -130.5l39 146q45 0 85 3t87 9q-43 -199 -85 -403.5t-71 -376.5q-8 -45 -10 -61.5t-2 -34.5q0 -61 61 -62q29 0 51.5 18.5t44.5 47.5l52 -45q-14 -23 -34 -45.5t-45.5 -43t-56 -33t-67.5 -12.5 q-86 0 -124 45.5t-38 112.5q0 33 6 67t15 66l-11 2q-25 -55 -57.5 -107t-77.5 -94t-100.5 -67t-124.5 -25q-129 0 -196.5 90.5t-67.5 260.5zM225 319q0 -96 28.5 -154.5t106.5 -58.5q53 0 100.5 32t86.5 84t68.5 118t51 134.5t32 134t10.5 116.5q0 45 -9.5 85t-30 70.5 t-52 48t-76.5 17.5q-86 0 -146.5 -61.5t-97.5 -153.5t-54.5 -202.5t-17.5 -209.5zM356 1165l262 353q10 8 34 15t46 7q25 0 42.5 -13.5t29.5 -49.5l107 -318l-52 -31l-166 240l-260 -242z" />
<glyph unicode="&#xe3;" horiz-adv-x="1067" d="M29 328q0 115 31.5 240.5t94 230t153.5 173t212 68.5q86 0 143.5 -39.5t92.5 -130.5l39 146q45 0 85 3t87 9q-43 -199 -85 -403.5t-71 -376.5q-8 -45 -10 -61.5t-2 -34.5q0 -61 61 -62q29 0 51.5 18.5t44.5 47.5l52 -45q-14 -23 -34 -45.5t-45.5 -43t-56 -33t-67.5 -12.5 q-86 0 -124 45.5t-38 112.5q0 33 6 67t15 66l-11 2q-25 -55 -57.5 -107t-77.5 -94t-100.5 -67t-124.5 -25q-129 0 -196.5 90.5t-67.5 260.5zM225 319q0 -96 28.5 -154.5t106.5 -58.5q53 0 100.5 32t86.5 84t68.5 118t51 134.5t32 134t10.5 116.5q0 45 -9.5 85t-30 70.5 t-52 48t-76.5 17.5q-86 0 -146.5 -61.5t-97.5 -153.5t-54.5 -202.5t-17.5 -209.5zM283 1237q43 94 98 146.5t139 52.5q53 0 86 -14.5t72 -32.5q29 -12 54.5 -21.5t53.5 -9.5q33 0 56.5 17.5t54.5 70.5l49 -16q-47 -113 -107.5 -157t-121.5 -44q-51 0 -90 15.5t-74 31.5 q-31 14 -56.5 23.5t-54.5 9.5q-23 0 -49 -17.5t-57 -72.5z" />
<glyph unicode="&#xe4;" horiz-adv-x="1067" d="M29 328q0 115 31.5 240.5t94 230t153.5 173t212 68.5q86 0 143.5 -39.5t92.5 -130.5l39 146q45 0 85 3t87 9q-43 -199 -85 -403.5t-71 -376.5q-8 -45 -10 -61.5t-2 -34.5q0 -61 61 -62q29 0 51.5 18.5t44.5 47.5l52 -45q-14 -23 -34 -45.5t-45.5 -43t-56 -33t-67.5 -12.5 q-86 0 -124 45.5t-38 112.5q0 33 6 67t15 66l-11 2q-25 -55 -57.5 -107t-77.5 -94t-100.5 -67t-124.5 -25q-129 0 -196.5 90.5t-67.5 260.5zM225 319q0 -96 28.5 -154.5t106.5 -58.5q53 0 100.5 32t86.5 84t68.5 118t51 134.5t32 134t10.5 116.5q0 45 -9.5 85t-30 70.5 t-52 48t-76.5 17.5q-86 0 -146.5 -61.5t-97.5 -153.5t-54.5 -202.5t-17.5 -209.5zM362 1290q0 59 37 99.5t90 40.5q43 0 69 -20.5t26 -68.5q0 -53 -36 -93t-93 -40q-51 0 -72 23.5t-21 58.5zM739 1290q0 59 38 99.5t91 40.5q41 0 68 -20.5t27 -68.5q0 -53 -37 -93t-95 -40 q-51 0 -71.5 23.5t-20.5 58.5z" />
<glyph unicode="&#xe5;" horiz-adv-x="1067" d="M29 328q0 115 31.5 240.5t94 230t153.5 173t212 68.5q86 0 143.5 -39.5t92.5 -130.5l39 146q45 0 85 3t87 9q-43 -199 -85 -403.5t-71 -376.5q-8 -45 -10 -61.5t-2 -34.5q0 -61 61 -62q29 0 51.5 18.5t44.5 47.5l52 -45q-14 -23 -34 -45.5t-45.5 -43t-56 -33t-67.5 -12.5 q-86 0 -124 45.5t-38 112.5q0 33 6 67t15 66l-11 2q-25 -55 -57.5 -107t-77.5 -94t-100.5 -67t-124.5 -25q-129 0 -196.5 90.5t-67.5 260.5zM225 319q0 -96 28.5 -154.5t106.5 -58.5q53 0 100.5 32t86.5 84t68.5 118t51 134.5t32 134t10.5 116.5q0 45 -9.5 85t-30 70.5 t-52 48t-76.5 17.5q-86 0 -146.5 -61.5t-97.5 -153.5t-54.5 -202.5t-17.5 -209.5zM410 1296q0 100 66.5 166t170.5 66q82 0 122 -46t40 -114q0 -104 -64.5 -167.5t-166.5 -63.5q-88 0 -128 45.5t-40 113.5zM514 1311q0 -33 16.5 -60.5t63.5 -27.5q57 0 82.5 42t25.5 89 q0 41 -17 65.5t-58 24.5q-47 0 -80 -37t-33 -96z" />
<glyph unicode="&#xe6;" horiz-adv-x="1511" d="M29 328q0 113 31.5 238.5t93 231t153.5 174t213 68.5q86 0 143.5 -38.5t92.5 -131.5l39 146q45 0 80.5 3t72.5 9q-6 -27 -12 -53.5t-10 -52.5q53 55 118.5 86.5t139.5 31.5q129 0 191.5 -63.5t62.5 -167.5q0 -86 -32 -147.5t-84 -103.5t-116.5 -68.5t-130 -41t-126 -19.5 t-101.5 -7q0 -80 7 -141.5t28.5 -103.5t60.5 -62.5t100 -20.5q82 0 153 58.5t130 209.5l86 -28q-51 -168 -163.5 -262.5t-266.5 -94.5q-147 0 -220 82t-87 230q-25 -53 -61.5 -108.5t-86 -100.5t-109 -74t-126.5 -29q-129 0 -196.5 92.5t-67.5 258.5zM225 319 q0 -96 28.5 -154.5t106.5 -58.5q53 0 100.5 32t86.5 84t68.5 118t51 134.5t32 134t10.5 116.5q0 45 -9.5 85t-30 70.5t-52 48t-76.5 17.5q-86 0 -146.5 -61.5t-97.5 -153.5t-54.5 -202.5t-17.5 -209.5zM856 504q80 6 152.5 25.5t128 56.5t88 93t32.5 136q0 70 -28.5 102.5 t-81.5 32.5q-43 0 -88 -29.5t-85 -86t-72 -140.5t-46 -190z" />
<glyph unicode="&#xe7;" horiz-adv-x="903" d="M29 365q0 125 35.5 245.5t104.5 216t172.5 154.5t238.5 59t202.5 -70.5t67.5 -174.5q0 -78 -37 -132.5t-117 -54.5q-51 0 -82.5 24.5t-31.5 72.5q0 57 32 104h68q12 33 12 63q0 39 -31.5 58.5t-84.5 19.5q-98 0 -166 -53t-110 -138t-60.5 -188.5t-18.5 -203.5 q0 -131 45 -203t150 -72q106 0 170.5 70.5t111.5 197.5l88 -26q-16 -61 -46.5 -120.5t-75.5 -108t-105.5 -81t-138.5 -42.5l-64 -88q10 4 25.5 5t24.5 1q72 0 107.5 -43t35.5 -103q0 -51 -21.5 -89t-57.5 -63.5t-81 -39t-94 -13.5q-78 0 -115 35t-37 76q0 31 19.5 55.5 t54.5 24.5q27 0 43.5 -16.5t18.5 -42.5l-43 -29q-4 -43 63 -43q53 0 86 37t33 98q0 37 -19.5 62.5t-62.5 25.5q-18 0 -40 -3t-36 -7l-6 43l86 112q-158 8 -235.5 110.5t-77.5 277.5z" />
<glyph unicode="&#xe8;" horiz-adv-x="886" d="M27 362q0 129 38.5 251t109.5 217.5t168 152.5t214 57t186.5 -58t69.5 -173q0 -86 -32.5 -147.5t-84 -103.5t-117 -68.5t-131 -41t-125 -19.5t-100.5 -7q-2 -80 6.5 -141.5t31 -103.5t60 -62.5t97.5 -20.5q82 0 153.5 58.5t130.5 209.5l86 -28q-49 -166 -162.5 -261.5 t-269.5 -95.5q-160 0 -244.5 101.5t-84.5 283.5zM231 504q80 6 153 25.5t128 56.5t88 93t33 136q0 70 -30 102.5t-81 32.5q-43 0 -88 -29.5t-85 -86t-71.5 -140.5t-46.5 -190zM440 1477q0 20 12.5 35.5t31 24.5t40 9t39.5 -8l60 -27l77 -370l-49 -21l-178 273 q-12 18 -22.5 38.5t-10.5 45.5z" />
<glyph unicode="&#xe9;" horiz-adv-x="886" d="M27 362q0 129 38.5 251t109.5 217.5t168 152.5t214 57t186.5 -58t69.5 -173q0 -86 -32.5 -147.5t-84 -103.5t-117 -68.5t-131 -41t-125 -19.5t-100.5 -7q-2 -80 6.5 -141.5t31 -103.5t60 -62.5t97.5 -20.5q82 0 153.5 58.5t130.5 209.5l86 -28q-49 -166 -162.5 -261.5 t-269.5 -95.5q-160 0 -244.5 101.5t-84.5 283.5zM231 504q80 6 153 25.5t128 56.5t88 93t33 136q0 70 -30 102.5t-81 32.5q-43 0 -88 -29.5t-85 -86t-71.5 -140.5t-46.5 -190zM451 1151l186 365l82 18q35 6 61.5 -8.5t26.5 -48.5q0 -29 -14.5 -51.5t-38.5 -47.5l-256 -260z " />
<glyph unicode="&#xea;" horiz-adv-x="886" d="M27 362q0 129 38.5 251t109.5 217.5t168 152.5t214 57t186.5 -58t69.5 -173q0 -86 -32.5 -147.5t-84 -103.5t-117 -68.5t-131 -41t-125 -19.5t-100.5 -7q-2 -80 6.5 -141.5t31 -103.5t60 -62.5t97.5 -20.5q82 0 153.5 58.5t130.5 209.5l86 -28q-49 -166 -162.5 -261.5 t-269.5 -95.5q-160 0 -244.5 101.5t-84.5 283.5zM231 504q80 6 153 25.5t128 56.5t88 93t33 136q0 70 -30 102.5t-81 32.5q-43 0 -88 -29.5t-85 -86t-71.5 -140.5t-46.5 -190zM315 1165l263 353q10 8 33.5 15t45.5 7q25 0 42.5 -13.5t29.5 -49.5l107 -318l-52 -31l-166 240 l-260 -242z" />
<glyph unicode="&#xeb;" horiz-adv-x="886" d="M27 362q0 129 38.5 251t109.5 217.5t168 152.5t214 57t186.5 -58t69.5 -173q0 -86 -32.5 -147.5t-84 -103.5t-117 -68.5t-131 -41t-125 -19.5t-100.5 -7q-2 -80 6.5 -141.5t31 -103.5t60 -62.5t97.5 -20.5q82 0 153.5 58.5t130.5 209.5l86 -28q-49 -166 -162.5 -261.5 t-269.5 -95.5q-160 0 -244.5 101.5t-84.5 283.5zM231 504q80 6 153 25.5t128 56.5t88 93t33 136q0 70 -30 102.5t-81 32.5q-43 0 -88 -29.5t-85 -86t-71.5 -140.5t-46.5 -190zM305 1290q0 59 37 99.5t90 40.5q43 0 68.5 -20.5t25.5 -68.5q0 -53 -35.5 -93t-93.5 -40 q-51 0 -71.5 23.5t-20.5 58.5zM682 1290q0 59 38 99.5t91 40.5q41 0 67.5 -20.5t26.5 -68.5q0 -53 -37 -93t-94 -40q-51 0 -71.5 23.5t-20.5 58.5z" />
<glyph unicode="&#xec;" horiz-adv-x="544" d="M72 139q0 39 8 89.5t26 138.5q16 74 34 152.5t33 153.5t29.5 140.5t24.5 112.5l-147 16l14 76h326l8 -21q-35 -152 -69.5 -298t-71.5 -322q-10 -47 -21.5 -107.5t-11.5 -101.5q0 -78 68 -78q53 0 100 66l53 -47q-41 -68 -100.5 -100t-116.5 -32q-186 0 -186 162z M199 1477q0 20 12 35.5t30.5 24.5t40 9t40.5 -8l59 -27l78 -370l-49 -21l-179 273q-12 18 -22 38.5t-10 45.5z" />
<glyph unicode="&#xed;" horiz-adv-x="544" d="M72 139q0 39 8 89.5t26 138.5q16 74 34 152.5t33 153.5t29.5 140.5t24.5 112.5l-147 16l14 76h326l8 -21q-35 -152 -69.5 -298t-71.5 -322q-10 -47 -21.5 -107.5t-11.5 -101.5q0 -78 68 -78q53 0 100 66l53 -47q-41 -68 -100.5 -100t-116.5 -32q-186 0 -186 162z M184 1151l187 365l82 18q35 6 61.5 -8.5t26.5 -48.5q0 -29 -14.5 -51.5t-39.5 -47.5l-256 -260z" />
<glyph unicode="&#xee;" horiz-adv-x="544" d="M55 1165l262 353q10 8 34 15t46 7q25 0 42.5 -13.5t29.5 -49.5l106 -318l-51 -31l-166 240l-260 -242zM72 139q0 39 8 89.5t26 138.5q16 74 34 152.5t33 153.5t29.5 140.5t24.5 112.5l-147 16l14 76h326l8 -21q-35 -152 -69.5 -298t-71.5 -322q-10 -47 -21.5 -107.5 t-11.5 -101.5q0 -78 68 -78q53 0 100 66l53 -47q-41 -68 -100.5 -100t-116.5 -32q-186 0 -186 162z" />
<glyph unicode="&#xef;" horiz-adv-x="544" d="M43 1290q0 59 38 99.5t91 40.5q41 0 67.5 -20.5t26.5 -68.5q0 -53 -36.5 -93t-94.5 -40q-49 0 -70.5 23.5t-21.5 58.5zM72 139q0 39 8 89.5t26 138.5q16 74 34 152.5t33 153.5t29.5 140.5t24.5 112.5l-147 16l14 76h326l8 -21q-35 -152 -69.5 -298t-71.5 -322 q-10 -47 -21.5 -107.5t-11.5 -101.5q0 -78 68 -78q53 0 100 66l53 -47q-41 -68 -100.5 -100t-116.5 -32q-186 0 -186 162zM389 1290q0 59 38 99.5t91 40.5q41 0 66.5 -20.5t25.5 -68.5q0 -53 -35.5 -93t-93.5 -40q-51 0 -71.5 23.5t-20.5 58.5z" />
<glyph unicode="&#xf0;" horiz-adv-x="1034" d="M29 352q0 123 30.5 242t92 211t152.5 149.5t212 57.5q104 0 168 -47t90 -125q6 61 6 121q0 94 -17.5 183t-62.5 163l-206 -150l-29 90l178 127q-51 47 -121.5 79t-167.5 42l27 84q104 -6 202.5 -37t178.5 -84l221 158l27 -90l-176 -127q59 -72 96 -177.5t37 -285.5 q0 -88 -13.5 -193.5t-42 -212t-76 -207t-114 -177t-155.5 -123t-204 -46.5q-160 0 -246.5 97.5t-86.5 277.5zM221 328q0 -47 8.5 -93.5t27.5 -83t52 -59t84 -22.5q70 0 129.5 45t101.5 124.5t65.5 190.5t23.5 244q0 111 -50.5 171t-134.5 60q-61 0 -116.5 -37t-97.5 -110.5 t-67.5 -181t-25.5 -248.5z" />
<glyph unicode="&#xf1;" horiz-adv-x="1075" d="M29 -14l90 397l78 541l-152 18l14 76h322l6 -21l-84 -346l12 -6q33 74 75 144.5t94.5 127t117 90t139.5 33.5q92 0 143.5 -60t51.5 -165q0 -82 -22.5 -163t-50 -161.5t-50 -162.5t-22.5 -168q0 -39 16 -54.5t47 -15.5q47 0 96 66l54 -47q-39 -57 -91.5 -94.5 t-128.5 -37.5q-84 0 -128 45.5t-44 124.5q0 61 23.5 150.5t52.5 185t52.5 186.5t23.5 156q0 88 -72 88q-45 0 -97 -36.5t-102.5 -99t-93.5 -144.5t-71 -170q-41 -131 -64.5 -256t-34.5 -201q-45 2 -102 -4t-98 -16zM328 1237q43 94 98 146.5t139 52.5q53 0 86 -14.5 t72 -32.5q29 -12 54.5 -21.5t53.5 -9.5q33 0 56.5 17.5t54.5 70.5l49 -16q-47 -113 -107.5 -157t-121.5 -44q-51 0 -90 15.5t-74 31.5q-31 14 -56.5 23.5t-54.5 9.5q-23 0 -49 -17.5t-57 -72.5z" />
<glyph unicode="&#xf2;" horiz-adv-x="991" d="M27 360q0 119 34.5 240t102 219.5t168 159.5t231.5 61q178 0 260 -104.5t82 -276.5q0 -117 -33.5 -238.5t-101.5 -220t-168 -161t-231 -62.5q-176 0 -260 104.5t-84 278.5zM219 322q0 -115 40 -183.5t136 -68.5q59 0 106.5 30.5t82 80.5t59.5 114.5t40 134.5t21.5 139.5 t6.5 128.5q0 106 -39 178t-137 72q-90 0 -150.5 -64.5t-97.5 -159.5t-52.5 -204.5t-15.5 -197.5zM416 1477q0 20 12 35.5t30.5 24.5t40 9t40.5 -8l59 -27l78 -370l-49 -21l-178 273q-12 18 -22.5 38.5t-10.5 45.5z" />
<glyph unicode="&#xf3;" horiz-adv-x="991" d="M27 360q0 119 34.5 240t102 219.5t168 159.5t231.5 61q178 0 260 -104.5t82 -276.5q0 -117 -33.5 -238.5t-101.5 -220t-168 -161t-231 -62.5q-176 0 -260 104.5t-84 278.5zM219 322q0 -115 40 -183.5t136 -68.5q59 0 106.5 30.5t82 80.5t59.5 114.5t40 134.5t21.5 139.5 t6.5 128.5q0 106 -39 178t-137 72q-90 0 -150.5 -64.5t-97.5 -159.5t-52.5 -204.5t-15.5 -197.5zM453 1151l186 365l82 18q35 6 61.5 -8.5t26.5 -48.5q0 -29 -14.5 -51.5t-38.5 -47.5l-256 -260z" />
<glyph unicode="&#xf4;" horiz-adv-x="991" d="M27 360q0 119 34.5 240t102 219.5t168 159.5t231.5 61q178 0 260 -104.5t82 -276.5q0 -117 -33.5 -238.5t-101.5 -220t-168 -161t-231 -62.5q-176 0 -260 104.5t-84 278.5zM219 322q0 -115 40 -183.5t136 -68.5q59 0 106.5 30.5t82 80.5t59.5 114.5t40 134.5t21.5 139.5 t6.5 128.5q0 106 -39 178t-137 72q-90 0 -150.5 -64.5t-97.5 -159.5t-52.5 -204.5t-15.5 -197.5zM307 1165l262 353q10 8 34 15t46 7q25 0 42.5 -13.5t29.5 -49.5l106 -318l-51 -31l-166 240l-260 -242z" />
<glyph unicode="&#xf5;" horiz-adv-x="991" d="M27 360q0 119 34.5 240t102 219.5t168 159.5t231.5 61q178 0 260 -104.5t82 -276.5q0 -117 -33.5 -238.5t-101.5 -220t-168 -161t-231 -62.5q-176 0 -260 104.5t-84 278.5zM219 322q0 -115 40 -183.5t136 -68.5q59 0 106.5 30.5t82 80.5t59.5 114.5t40 134.5t21.5 139.5 t6.5 128.5q0 106 -39 178t-137 72q-90 0 -150.5 -64.5t-97.5 -159.5t-52.5 -204.5t-15.5 -197.5zM274 1237q43 94 98.5 146.5t139.5 52.5q53 0 86 -14.5t72 -32.5q29 -12 54.5 -21.5t53.5 -9.5q33 0 56.5 17.5t54.5 70.5l49 -16q-47 -113 -107.5 -157t-121.5 -44 q-51 0 -90 15.5t-74 31.5q-31 14 -56.5 23.5t-54.5 9.5q-23 0 -49.5 -17.5t-56.5 -72.5z" />
<glyph unicode="&#xf6;" horiz-adv-x="991" d="M27 360q0 119 34.5 240t102 219.5t168 159.5t231.5 61q178 0 260 -104.5t82 -276.5q0 -117 -33.5 -238.5t-101.5 -220t-168 -161t-231 -62.5q-176 0 -260 104.5t-84 278.5zM219 322q0 -115 40 -183.5t136 -68.5q59 0 106.5 30.5t82 80.5t59.5 114.5t40 134.5t21.5 139.5 t6.5 128.5q0 106 -39 178t-137 72q-90 0 -150.5 -64.5t-97.5 -159.5t-52.5 -204.5t-15.5 -197.5zM299 1290q0 59 37 99.5t90 40.5q43 0 68.5 -20.5t25.5 -68.5q0 -53 -35.5 -93t-93.5 -40q-51 0 -71.5 23.5t-20.5 58.5zM676 1290q0 59 38 99.5t91 40.5q41 0 67.5 -20.5 t26.5 -68.5q0 -53 -37 -93t-94 -40q-51 0 -71.5 23.5t-20.5 58.5z" />
<glyph unicode="&#xf7;" d="M92 565l19 119h874l-18 -119h-875zM344 283q0 82 51 129t119 47q53 0 87 -29t34 -86q0 -82 -51.5 -131t-120.5 -49q-68 0 -93.5 38t-25.5 81zM444 911q0 41 14.5 74t38 55.5t54 34.5t63.5 12q55 0 89 -28.5t34 -85.5q0 -82 -52 -131t-120 -49t-94.5 37.5t-26.5 80.5z" />
<glyph unicode="&#xf8;" horiz-adv-x="991" d="M27 360q0 119 34.5 240t102 219.5t168 159.5t231.5 61q23 0 45.5 -2t42.5 -6l62 129l96 -43l-57 -123q78 -45 115.5 -132t37.5 -204t-33.5 -238.5t-101.5 -220t-168 -161t-231 -62.5q-49 0 -97 11l-69 -148l-94 43l65 142q-78 47 -113.5 132.5t-35.5 202.5zM219 322 q0 -92 25 -154l362 766q-29 14 -71 14q-90 0 -150.5 -64.5t-97.5 -159.5t-52.5 -204.5t-15.5 -197.5zM319 84q31 -14 76 -14q59 0 106.5 30.5t82 80.5t59.5 114.5t40 134.5t21.5 139.5t6.5 128.5q0 94 -27 154z" />
<glyph unicode="&#xf9;" d="M70 942l14 76h319l9 -21q-35 -141 -65 -270t-52.5 -234.5t-34.5 -181t-12 -106.5q0 -45 21.5 -72t66.5 -27q59 0 114.5 49.5t101.5 121t81 150.5t53 138q39 121 61.5 239t32.5 208h17q43 0 94 5t90 15q-35 -166 -69.5 -333t-67.5 -326q-10 -53 -21.5 -115.5t-11.5 -101.5 q0 -66 59 -66q31 0 53.5 18.5t45.5 47.5l51 -45q-14 -23 -33.5 -46.5t-45.5 -43t-56.5 -32t-67.5 -12.5q-92 0 -128 44.5t-36 121.5q0 41 11.5 88.5t23.5 98.5l-12 6q-31 -72 -67 -136.5t-83 -113.5t-106.5 -79t-134.5 -30q-115 0 -163 59.5t-48 149.5q0 29 4 62.5t10 66.5 q20 111 55 268.5t72 342.5zM436 1477q0 20 12.5 35.5t31 24.5t40 9t39.5 -8l59 -27l78 -370l-49 -21l-178 273q-12 18 -22.5 38.5t-10.5 45.5z" />
<glyph unicode="&#xfa;" d="M70 942l14 76h319l9 -21q-35 -141 -65 -270t-52.5 -234.5t-34.5 -181t-12 -106.5q0 -45 21.5 -72t66.5 -27q59 0 114.5 49.5t101.5 121t81 150.5t53 138q39 121 61.5 239t32.5 208h17q43 0 94 5t90 15q-35 -166 -69.5 -333t-67.5 -326q-10 -53 -21.5 -115.5t-11.5 -101.5 q0 -66 59 -66q31 0 53.5 18.5t45.5 47.5l51 -45q-14 -23 -33.5 -46.5t-45.5 -43t-56.5 -32t-67.5 -12.5q-92 0 -128 44.5t-36 121.5q0 41 11.5 88.5t23.5 98.5l-12 6q-31 -72 -67 -136.5t-83 -113.5t-106.5 -79t-134.5 -30q-115 0 -163 59.5t-48 149.5q0 29 4 62.5t10 66.5 q20 111 55 268.5t72 342.5zM494 1151l186 365l82 18q35 6 61.5 -8.5t26.5 -48.5q0 -29 -14.5 -51.5t-38.5 -47.5l-256 -260z" />
<glyph unicode="&#xfb;" d="M70 942l14 76h319l9 -21q-35 -141 -65 -270t-52.5 -234.5t-34.5 -181t-12 -106.5q0 -45 21.5 -72t66.5 -27q59 0 114.5 49.5t101.5 121t81 150.5t53 138q39 121 61.5 239t32.5 208h17q43 0 94 5t90 15q-35 -166 -69.5 -333t-67.5 -326q-10 -53 -21.5 -115.5t-11.5 -101.5 q0 -66 59 -66q31 0 53.5 18.5t45.5 47.5l51 -45q-14 -23 -33.5 -46.5t-45.5 -43t-56.5 -32t-67.5 -12.5q-92 0 -128 44.5t-36 121.5q0 41 11.5 88.5t23.5 98.5l-12 6q-31 -72 -67 -136.5t-83 -113.5t-106.5 -79t-134.5 -30q-115 0 -163 59.5t-48 149.5q0 29 4 62.5t10 66.5 q20 111 55 268.5t72 342.5zM350 1165l262 353q10 8 34 15t46 7q25 0 42.5 -13.5t29.5 -49.5l106 -318l-51 -31l-166 240l-260 -242z" />
<glyph unicode="&#xfc;" d="M70 942l14 76h319l9 -21q-35 -141 -65 -270t-52.5 -234.5t-34.5 -181t-12 -106.5q0 -45 21.5 -72t66.5 -27q59 0 114.5 49.5t101.5 121t81 150.5t53 138q39 121 61.5 239t32.5 208h17q43 0 94 5t90 15q-35 -166 -69.5 -333t-67.5 -326q-10 -53 -21.5 -115.5t-11.5 -101.5 q0 -66 59 -66q31 0 53.5 18.5t45.5 47.5l51 -45q-14 -23 -33.5 -46.5t-45.5 -43t-56.5 -32t-67.5 -12.5q-92 0 -128 44.5t-36 121.5q0 41 11.5 88.5t23.5 98.5l-12 6q-31 -72 -67 -136.5t-83 -113.5t-106.5 -79t-134.5 -30q-115 0 -163 59.5t-48 149.5q0 29 4 62.5t10 66.5 q20 111 55 268.5t72 342.5zM348 1290q0 59 37 99.5t90 40.5q43 0 68.5 -20.5t25.5 -68.5q0 -53 -35.5 -93t-93.5 -40q-51 0 -71.5 23.5t-20.5 58.5zM725 1290q0 59 38 99.5t91 40.5q41 0 67.5 -20.5t26.5 -68.5q0 -53 -37 -93t-94 -40q-51 0 -71.5 23.5t-20.5 58.5z" />
<glyph unicode="&#xfd;" horiz-adv-x="1021" d="M-92 -229q0 80 43 128t115 48q51 0 83.5 -29t32.5 -88q0 -12 -2 -26.5t-6 -30.5l-80 -13q-6 -10 -8 -22t-2 -23q0 -51 59 -51q82 0 158 83t162 224q-45 199 -93 408t-104 407q-18 63 -35.5 84t-42.5 21q-31 0 -57.5 -43t-52.5 -109l-72 37q41 117 93.5 183.5t152.5 66.5 q70 0 113 -48t71 -153q43 -156 81 -323.5t69 -333.5q47 82 94 172t84 173t60.5 150.5t23.5 104.5q0 33 -15.5 50.5t-39.5 21.5l-58 -76q-37 14 -61.5 49t-24.5 82q0 57 43 101t115 44q82 0 126 -54t44 -140q0 -66 -31 -156t-75 -188.5t-96 -192.5t-95 -168 q-90 -156 -159.5 -264t-132 -177t-125 -100.5t-140.5 -31.5q-100 0 -157.5 55t-57.5 148zM473 1151l186 365l82 18q35 6 61.5 -8.5t26.5 -48.5q0 -29 -14 -51.5t-39 -47.5l-256 -260z" />
<glyph unicode="&#xfe;" horiz-adv-x="1073" d="M-131 -410l16 82l119 15l170 1011l127 744l-151 18l14 76h330l6 -20l-162 -775l10 -2q68 147 163 224t222 77t188.5 -93t61.5 -257q0 -119 -31.5 -245t-94 -230t-154 -171t-209.5 -67q-92 0 -155 42t-87 102l-68 -430l226 -19l-15 -82h-526zM303 293q0 -45 9.5 -85 t28.5 -71t51 -48t77 -17q86 0 146.5 61.5t97.5 153.5t54 202.5t17 208.5q0 96 -28.5 154.5t-106.5 58.5q-55 0 -101 -31.5t-85 -84t-68.5 -118t-50 -134t-31 -134t-10.5 -116.5z" />
<glyph unicode="&#xff;" horiz-adv-x="1021" d="M-92 -229q0 80 43 128t115 48q51 0 83.5 -29t32.5 -88q0 -12 -2 -26.5t-6 -30.5l-80 -13q-6 -10 -8 -22t-2 -23q0 -51 59 -51q82 0 158 83t162 224q-45 199 -93 408t-104 407q-18 63 -35.5 84t-42.5 21q-31 0 -57.5 -43t-52.5 -109l-72 37q41 117 93.5 183.5t152.5 66.5 q70 0 113 -48t71 -153q43 -156 81 -323.5t69 -333.5q47 82 94 172t84 173t60.5 150.5t23.5 104.5q0 33 -15.5 50.5t-39.5 21.5l-58 -76q-37 14 -61.5 49t-24.5 82q0 57 43 101t115 44q82 0 126 -54t44 -140q0 -66 -31 -156t-75 -188.5t-96 -192.5t-95 -168 q-90 -156 -159.5 -264t-132 -177t-125 -100.5t-140.5 -31.5q-100 0 -157.5 55t-57.5 148zM326 1290q0 59 37 99.5t90 40.5q43 0 68.5 -20.5t25.5 -68.5q0 -53 -36 -93t-93 -40q-51 0 -71.5 23.5t-20.5 58.5zM702 1290q0 59 38 99.5t91 40.5q41 0 68 -20.5t27 -68.5 q0 -53 -37 -93t-94 -40q-51 0 -72 23.5t-21 58.5z" />
<glyph unicode="&#x152;" horiz-adv-x="1886" d="M51 547q0 186 54.5 351t153.5 289t240.5 196.5t313.5 72.5q18 0 45 -1t55.5 -4t55 -7t45.5 -10h846l-52 -385h-86q-4 92 -18 150t-48 90t-90.5 43t-142.5 11h-155l-94 -563h88q55 0 94 12.5t67.5 42t50 75.5t44.5 114h71l-102 -606h-76q2 80 -2 131t-23.5 79.5t-57.5 39 t-101 10.5h-70l-98 -584h155q104 0 177 17.5t124.5 60.5t88 112.5t69.5 174.5h84l-88 -459h-842q-57 -10 -125.5 -16.5t-134.5 -6.5q-109 0 -203 34t-163.5 103.5t-109.5 177.5t-40 255zM264 539q0 -457 354 -457q82 0 143.5 15.5t100.5 37.5l195 1165q-61 33 -129 44.5 t-133 11.5q-139 0 -239.5 -78t-165 -197.5t-95.5 -264t-31 -277.5z" />
<glyph unicode="&#x153;" horiz-adv-x="1527" d="M27 360q0 119 34.5 240t102 219.5t167 159.5t228.5 61q121 0 188.5 -61t94.5 -148q72 102 160.5 155.5t197.5 53.5q117 0 185.5 -58t68.5 -173q0 -86 -31.5 -147.5t-84 -103.5t-117 -68.5t-130 -41t-126 -19.5t-101.5 -7q-4 -164 37 -246t160 -82q82 0 152.5 58.5 t129.5 209.5l87 -28q-51 -166 -163 -261.5t-268 -95.5q-109 0 -178 60.5t-94 144.5q-61 -90 -151.5 -147.5t-206.5 -57.5q-176 0 -259 104.5t-83 278.5zM219 322q0 -115 40 -183.5t136 -68.5q59 0 106.5 30.5t82 80.5t59.5 114.5t40 134.5t21.5 139.5t6.5 128.5 q0 106 -39 178t-137 72q-90 0 -150.5 -64.5t-97.5 -159.5t-52.5 -204.5t-15.5 -197.5zM872 504q80 6 153 25.5t128 56.5t88 93t33 136q0 70 -28.5 102.5t-82.5 32.5q-43 0 -88 -29.5t-85 -86t-71.5 -140.5t-46.5 -190z" />
<glyph unicode="&#x178;" horiz-adv-x="1083" d="M88 1350l14 84h521l-15 -84l-174 -15l170 -553h6l357 553l-142 15l17 84h381l-15 -84l-123 -15l-448 -671l-92 -568l151 -14l-12 -82h-518l16 82l158 14l92 568l-227 671zM397 1642q0 59 39 97.5t90 38.5q92 0 92 -84q0 -59 -35.5 -98.5t-93.5 -39.5q-51 0 -71.5 26 t-20.5 60zM776 1642q0 59 38 97.5t91 38.5q43 0 67.5 -21.5t24.5 -62.5q0 -59 -36.5 -98.5t-92.5 -39.5q-53 0 -72.5 26t-19.5 60z" />
<glyph unicode="&#x2c6;" horiz-adv-x="937" d="M401 1165l263 353q10 8 33.5 15t45.5 7q25 0 42.5 -13.5t29.5 -49.5l107 -318l-52 -31l-165 240l-261 -242z" />
<glyph unicode="&#x2dc;" horiz-adv-x="937" d="M356 1237q43 94 98.5 146.5t139.5 52.5q53 0 86 -14.5t72 -32.5q29 -12 54 -21.5t54 -9.5q33 0 56.5 17.5t54.5 70.5l49 -16q-47 -113 -107.5 -157t-121.5 -44q-51 0 -90 15.5t-74 31.5q-31 14 -56.5 23.5t-54.5 9.5q-23 0 -49.5 -17.5t-56.5 -72.5z" />
<glyph unicode="&#x2000;" horiz-adv-x="927" />
<glyph unicode="&#x2001;" horiz-adv-x="1855" />
<glyph unicode="&#x2002;" horiz-adv-x="927" />
<glyph unicode="&#x2003;" horiz-adv-x="1855" />
<glyph unicode="&#x2004;" horiz-adv-x="618" />
<glyph unicode="&#x2005;" horiz-adv-x="463" />
<glyph unicode="&#x2006;" horiz-adv-x="309" />
<glyph unicode="&#x2007;" horiz-adv-x="309" />
<glyph unicode="&#x2008;" horiz-adv-x="231" />
<glyph unicode="&#x2009;" horiz-adv-x="371" />
<glyph unicode="&#x200a;" horiz-adv-x="103" />
<glyph unicode="&#x2010;" horiz-adv-x="624" d="M61 512l25 143h438l-24 -143h-439z" />
<glyph unicode="&#x2011;" horiz-adv-x="624" d="M61 512l25 143h438l-24 -143h-439z" />
<glyph unicode="&#x2012;" horiz-adv-x="624" d="M61 512l25 143h438l-24 -143h-439z" />
<glyph unicode="&#x2013;" horiz-adv-x="937" d="M2 492l18 120h885l-18 -120h-885z" />
<glyph unicode="&#x2014;" horiz-adv-x="1900" d="M4 492l19 120h1847l-19 -120h-1847z" />
<glyph unicode="&#x2018;" horiz-adv-x="389" d="M143 1159q0 63 26 118.5t65.5 101.5t91 85t102.5 70l33 -57q-35 -20 -70 -46t-62.5 -55.5t-44 -59.5t-16.5 -61q0 -33 19 -53l69 58q16 -12 38 -40t22 -69q0 -53 -40 -93t-108 -40q-61 0 -93 42t-32 99z" />
<glyph unicode="&#x2019;" horiz-adv-x="389" d="M131 995q35 20 70 46t62.5 55.5t44 59.5t16.5 61q0 33 -19 53l-69 -58q-16 12 -38 40t-22 69q0 53 40 93t108 40q61 0 93 -42t32 -99q0 -63 -26 -118.5t-66 -101.5t-91 -85t-102 -70z" />
<glyph unicode="&#x201a;" horiz-adv-x="411" d="M-53 -231q35 20 69.5 45.5t62 55.5t44 59.5t16.5 60.5q0 33 -18 53l-70 -57q-16 12 -37.5 39.5t-21.5 68.5q0 53 40 93t107 40q61 0 93 -42t32 -99q0 -63 -25.5 -118.5t-65.5 -101.5t-91 -85t-102 -70z" />
<glyph unicode="&#x201c;" horiz-adv-x="737" d="M143 1159q0 63 26 118.5t65.5 101.5t91 85t102.5 70l33 -57q-35 -20 -70 -46t-62.5 -55.5t-44 -59.5t-16.5 -61q0 -33 19 -53l69 58q16 -12 38 -40t22 -69q0 -53 -40 -93t-108 -40q-61 0 -93 42t-32 99zM492 1159q0 63 25.5 118.5t65.5 101.5t91 85t102 70l33 -57 q-35 -20 -69.5 -46t-62.5 -55.5t-44.5 -59.5t-16.5 -61q0 -33 19 -53l70 58q16 -12 37.5 -40t21.5 -69q0 -53 -40 -93t-108 -40q-61 0 -92.5 42t-31.5 99z" />
<glyph unicode="&#x201d;" horiz-adv-x="749" d="M131 995q35 20 68.5 46t61.5 55.5t45.5 59.5t17.5 61q0 33 -19 53l-72 -58q-16 12 -37.5 40t-21.5 69q0 53 40 93t110 40q61 0 93 -42t32 -99q0 -63 -26 -118.5t-67 -101.5t-92 -85t-102 -70zM473 995q35 20 70 46t62.5 55.5t44 59.5t16.5 61q0 33 -19 53l-69 -58 q-16 12 -38 40t-22 69q0 53 40 93t108 40q61 0 93 -42t32 -99q0 -63 -26 -118.5t-66 -101.5t-91 -85t-102 -70z" />
<glyph unicode="&#x201e;" horiz-adv-x="735" d="M-51 -231q35 20 68.5 45.5t61 55.5t44 59.5t16.5 60.5q0 33 -18 53l-70 -57q-16 12 -37.5 39.5t-21.5 68.5q0 53 40 93t107 40q61 0 94 -42t33 -99q0 -63 -25.5 -118.5t-66.5 -101.5t-92 -85t-102 -70zM270 -231q35 20 69 45.5t61.5 55.5t45 59.5t17.5 60.5q0 33 -19 53 l-71 -57q-16 12 -38 39.5t-22 68.5q0 53 40 93t110 40q61 0 93 -42t32 -99q0 -63 -25.5 -118.5t-66.5 -101.5t-92.5 -85t-102.5 -70z" />
<glyph unicode="&#x2022;" horiz-adv-x="657" d="M117 610q0 57 19.5 105.5t54 84.5t82 55t100.5 19q82 0 133 -43t51 -129q0 -59 -19.5 -108t-55.5 -85t-83 -56.5t-102 -20.5q-51 0 -85 15.5t-55.5 40t-30.5 56t-9 66.5z" />
<glyph unicode="&#x2026;" horiz-adv-x="1423" d="M-41 98q0 82 51 129t119 47q53 0 87 -28.5t34 -85.5q0 -82 -51.5 -131t-120.5 -49q-68 0 -93.5 37.5t-25.5 80.5zM467 98q0 82 51 129t119 47q53 0 87 -28.5t34 -85.5q0 -82 -51.5 -131t-120.5 -49q-68 0 -93.5 37.5t-25.5 80.5zM975 98q0 82 51 129t119 47 q53 0 87 -28.5t34 -85.5q0 -82 -51.5 -131t-120.5 -49q-68 0 -93.5 37.5t-25.5 80.5z" />
<glyph unicode="&#x202f;" horiz-adv-x="371" />
<glyph unicode="&#x2039;" horiz-adv-x="581" d="M45 459q0 45 31 67l391 299l43 -59l-281 -307l177 -309l-60 -50l-260 279q-25 27 -33 45t-8 35z" />
<glyph unicode="&#x203a;" horiz-adv-x="585" d="M16 160l281 307l-174 309l57 49l262 -278q23 -27 31 -45.5t8 -34.5q0 -45 -30 -68l-392 -299z" />
<glyph unicode="&#x205f;" horiz-adv-x="463" />
<glyph unicode="&#x20ac;" horiz-adv-x="1157" d="M-6 561l16 88h176q4 35 9.5 71t11.5 71h-139l14 88h145q31 115 83 219t126 184t172.5 127t222.5 47q74 0 131.5 -19.5t95.5 -53t58.5 -77.5t20.5 -94q0 -72 -36 -121t-108 -49q-45 0 -74.5 22.5t-29.5 70.5q0 23 7 47t24 47h61q8 23 8 43q0 41 -37.5 63.5t-109.5 22.5 q-78 0 -140.5 -37t-111.5 -101.5t-85 -152.5t-61 -188h422l-14 -88h-428q-8 -35 -12 -71t-9 -71h385l-14 -88h-381q0 -84 5 -171t32 -157.5t80 -115.5t152 -45q31 0 63.5 5t60 16t45 31.5t17.5 51.5q0 6 -1 12.5t-3 14.5h-60q-4 14 -6 27.5t-2 25.5q0 63 36 101t95 38 t86 -39t27 -88q0 -82 -39 -137t-97.5 -89t-125 -49.5t-119.5 -15.5q-229 0 -344 143.5t-115 440.5h-186z" />
<glyph unicode="&#x2122;" horiz-adv-x="1765" d="M141 1094l13 233h602l10 -233h-51q-10 57 -23.5 91t-34 50t-50 21.5t-75.5 5.5h-12v-623l96 -10v-60h-327v60l100 10v623h-14q-43 0 -74 -5.5t-51.5 -21.5t-33.5 -50t-21 -91h-54zM825 569v56l66 12v623l-66 8v59h262l179 -573h4l168 573h260v-59l-78 -8v-623l78 -12v-56 h-285v56l76 12v612h-4l-201 -680h-92l-221 682h-4v-614l67 -12v-56h-209z" />
<glyph unicode="&#x25fc;" horiz-adv-x="1044" d="M0 0v1044h1044v-1044h-1044z" />
</font>
</defs>
</svg>
